BitTorrentTracker PerecTracker.org
BitTorrentTracker PerecTracker.org
    
Регистрация  ·  Вход
 
 · 
Забыли пароль?

  • Ограбление по-американски / American Heist (Сарик Андреасян / Sarik Andreasyan) [2014, США, Россия, триллер, криминал, драма, боевик, HDRip] Dub

    Ответить на тему
     
    Автор Сообщение

    Light

    Создавать темы 21-Мар-2016 14:08

           

    [Цитировать]

    Ограбление по-американски / American Heist--Страна: США, Россия
    Жанр: триллер, криминал, драма, боевик
    Продолжительность: 01:35:02
    Год выпуска: 2014
    -Перевод: Профессиональный (дублированный) | iTunes
    Субтитры: нет
    Режиссёр: Сарик Андреасян / Sarik Andreasyan
    -В ролях:
    Хейден Кристенсен, Эдриан Броуди, Джордана Брюстер, Эйкон, Тори Киттлз, Луис Да Силва мл., Лэнс Э. Николс, Джон МакКоннелл, Джо Крест, Аарон В. Уильямсон
    -Описание:
    У Джеймса темное прошлое, но сейчас он из всех сил пытается изменить свою жизнь — встречается с красивой девушкой, устроился работать автомехаником, мечтает о собственном бизнесе. Тем временем, его старший брат Френки, отсидевший десять лет в тюрьме, выходит на свободу. Френки пытается наладить отношения, но Джеймс не может простить брата за то, что много лет назад он втянул его в криминал, из-за чего Джеймс отсидел шестнадцать месяцев.
    Однако попытки Джеймса начать новую жизнь не складываются: из-за тюремного прошлого он не может рассчитывать на хорошую работу и получает отказы в кредитовании своего бизнеса. Видя это, Френки предлагает Джеймсу «провести небольшое дельце». Он клянется, что это в последний раз и после ограбления банка в Новом Орлеане у них будут деньги, и они вернут свою жизнь, которую когда-то потеряли. В результате «небольшое дельце» станет одним из самых кровавых и драматических налетов в истории Америки…
    -Сэмпл: https://www.sendspace.com/file/nfykcf-Качество: HDRip - Исходник (Спасибо Ювелир)
    Формат: AVI
    Видео: 704x288 (2.44:1), 23.976 fps, XviD build 50 ~961 kbps avg, 0.20 bit/pixel
    Аудио: 48 kHz, MPEG Layer 3, 2 ch, ~128.00 kbps avg
    -

    Отчёт MediaInfo

    General
    Complete name : C:\Users\RVK\Desktop\American.Heist.2014.HDRip.polkera.avi
    Format : AVI
    Format/Info : Audio Video Interleave
    File size : 747 MiB
    Duration : 1h 35mn
    Overall bit rate : 1 099 Kbps
    Writing application : VirtualDubMod 1.5.10.2 (build 2540/release)
    Writing library : VirtualDubMod build 2540/release
    Video
    ID : 0
    Format : MPEG-4 Visual
    Format profile : Advanced Simple@L5
    Format settings, BVOP : 1
    Format settings, QPel : No
    Format settings, GMC : No warppoints
    Format settings, Matrix : Custom
    Codec ID : XVID
    Codec ID/Hint : XviD
    Duration : 1h 35mn
    Bit rate : 962 Kbps
    Width : 704 pixels
    Height : 288 pixels
    Display aspect ratio : 2.40:1
    Frame rate : 23.976 fps
    Color space : YUV
    Chroma subsampling : 4:2:0
    Bit depth : 8 bits
    Scan type : Progressive
    Compression mode : Lossy
    Bits/(Pixel*Frame) : 0.198
    Stream size : 654 MiB (88%)
    Writing library : XviD 1.2.1 (UTC 2008-12-04)
    Audio
    ID : 1
    Format : MPEG Audio
    Format version : Version 1
    Format profile : Layer 3
    Codec ID : 55
    Codec ID/Hint : MP3
    Duration : 1h 35mn
    Bit rate mode : Constant
    Bit rate : 128 Kbps
    Channel(s) : 2 channels
    Sampling rate : 48.0 KHz
    Compression mode : Lossy
    Stream size : 87.0 MiB (12%)
    Alignment : Aligned on interleaves
    Interleave, duration : 42 ms (1.00 video frame)
    Interleave, preload duratio : 504 ms
    Writing library : LAME3.98r
    Encoding settings : -m s -V 4 -q 2 -lowpass 17 -b 128

    -

    Скриншоты

    Скачать .torrent

    Скачать торрент-файл бесплатно и на максимальной скорости!

    Как скачивать? · Что такое торрент? · Рейтинг и ограничения

    !ВНИМАНИЕ!
    Сайт не распространяет и не хранит электронные версии произведений, а занимается лишь лишь предоставлением доступа к создаваемому пользователями каталогу ссылок на торрент-файлы, которые содержат только списки хеш-сумм, убедительная просьба с жалобами обращаться напрямую к пользователю. Файлы для обмена на трекере предоставлены пользователями сайта, и администрация не несёт ответственности за их содержание. Просьба не заливать файлы, защищенные авторскими правами, а также файлы нелегального содержания!


    _________________
    [Профиль] [ЛС]
    Показать сообщения:    
    Ответить на тему

    Текущее время: Сегодня, в 00:23

    Часовой пояс: GMT + 2



    Вы не можете начинать темы
    Вы не можете отвечать на сообщения
    Вы не можете редактировать свои сообщения
    Вы не можете удалять свои сообщения
    Вы не можете голосовать в опросах
    Вы не можете прикреплять файлы к сообщениям
    Вы не можете скачивать файлы