Register  ·  Log in
Forgot password?

  • Здрасьте, я ваш папа! (Владимир Чубриков) [2013, Комедия, HDTVRip]

    Reply to topic
    Author Message


    Post 21-Mar-2016 02:01



    Здрасьте, я ваш папа!
    Жанр: Комедия
    Год выпуска: 2013
    Продолжительность: 01:20:18
    Режиссёр: Владимир Чубриков
    В ролях: Александр Демидов, Алексей Панин, Валерий Баринов, Владимир Стержаков, Мария Горбань, Дарья Чаруша, Валерия Кудрявцева, Игорь Кистол, Семён Фурман, Ёла Санько
    Описание: Иннокентий Печенкин — абсолютный неудачник по жизни! На него, одна за одной, валятся всевозможные проблемы, которые, казалось бы, уже нерешаемы. Но, в один прекрасный момент, главному герою фильма выпадает шанс решить все сложности разом, а именно — обзавестись семьей, и все бы ничего, но времени у него — всего лишь месяц!

    Качество видео: HDTVRip [Исходник: HDTV (1080i) от Silverok]
    Формат видео: AVI
    Видео: XviD, 720x304 (2.35:1), 2195 Кбит/с, 25 кадр/с, 0.401 bit/pixel
    Аудио: Русский, Dolby AC3, 48000 Гц, 224 Кбит/с, 2 канала (Стерео)

    Автор рипа - ivandubskoj


    Complete name : Zdraste.ja.vash.papa.2013.HDTVRip.avi
    Format : AVI
    Format/Info : Audio Video Interleave
    File size : 1.36 GiB
    Duration : 1h 20mn
    Overall bit rate : 2 429 Kbps
    Writing application : VirtualDubMod | || (build 2550/release)
    Writing library : VirtualDubMod build 2550/release
    ID : 0
    Format : MPEG-4 Visual
    Format profile : Advanced Simple@L5
    Format settings, BVOP : 1
    Format settings, QPel : No
    Format settings, GMC : No warppoints
    Format settings, Matrix : Custom
    Codec ID : XVID
    Codec ID/Hint : XviD
    Duration : 1h 20mn
    Bit rate : 2 195 Kbps
    Width : 720 pixels
    Height : 304 pixels
    Display aspect ratio : 2.35:1
    Frame rate : 25.000 fps
    Color space : YUV
    Chroma subsampling : 4:2:0
    Bit depth : 8 bits
    Scan type : Progressive
    Compression mode : Lossy
    Bits/(Pixel*Frame) : 0.401
    Stream size : 1.23 GiB (90%)
    Writing library : XviD 73
    ID : 1
    Format : AC-3
    Format/Info : Audio Coding 3
    Mode extension : CM (complete main)
    Format settings, Endianness : Big
    Codec ID : 2000
    Duration : 1h 20mn
    Bit rate mode : Constant
    Bit rate : 224 Kbps
    Channel(s) : 2 channels
    Channel positions : Front: L R
    Sampling rate : 48.0 KHz
    Bit depth : 16 bits
    Compression mode : Lossy
    Stream size : 129 MiB (9%)
    Alignment : Split accross interleaves
    Interleave, duration : 40 ms (1.00 video frame)
    Interleave, preload duration : 500 ms

    Скриншот c названием фильма


    Download .torrent

    Download free and at maximum speed!

    How to Download? · What is a torrent? · Ratings and Limitations

    The site does not extend and does not store electronic(digital) versions of products, and only gives access to a reference catalogue created by users on torrent-files which contain only lists of the hash-sums, the earnest entreaty, with complaints(abuse) to access directly to the user. Files for an exchange on tracker are given by users of a site, and the administration does not bear the responsibility for their maintenance. The request to not fill in the files protected by copyrights, and also files of the illegal maintenance!

    [Profile] [PM]
    Display posts from previous:    
    Reply to topic

    The time now is: Today 08:28

    All times are GMT + 3 Hours

    You cannot post new topics in this forum
    You cannot reply to topics in this forum
    You cannot edit your posts in this forum
    You cannot delete your posts in this forum
    You cannot vote in polls in this forum
    You cannot attach files in this forum
    You cannot download files in this forum