BitTorrentTracker PerecTracker.org
BitTorrentTracker PerecTracker.org
    
Регистрация  ·  Вход
 
 · 
Забыли пароль?

  • Милые обманщицы / Pretty Little Liars / Сезон: 6 / Серии: 1-20 из 20 (Рон Лагомарсино) [2015, Молодежная драма, триллер, WEB-DLRip] MVO (NewStudio) + Original + Subs (rus, eng)

    Ответить на тему
     
    Автор Сообщение

    rechyn

    Создавать темы 20-Мар-2016 23:43

           

    [Цитировать]

    Милые обманщицы / Pretty Little Liars
    Год выпуска: 2015
    Страна: США
    Жанр: Молодежная драма, триллер
    Продолжительность: ~ 42 мин.
    Перевод: Профессиональный (многоголосый закадровый) {NewStudio}
    Режиссёр: Рон Лагомарсино
    В ролях: Шэй Митчелл (Эмили), Тройэн Эвери Беллисарио (Спенсер), Эшли Бенсон (Ханна), Люси Хейл (Ария), Джанел Пэрриш (Мона), Таммин Сурсок (Дженна), Торри ДеВито (Мелисса), Саша Питерс (Элисон), Тайлер Блэкберн (Калеб), Кигэн Аллен (Тоби) и другие
    Описание: В городке Роузвуд, штат Пенсильвания, на первый взгляд все чудесно. Аккуратно подстриженные живые изгороди, красивые современные особняки. Но стоит только присмотреться… У каждого тут есть своя не слишком красивая тайна, а сплетней здесь больше, чем "Мерседесов" на улицах. Четыре подруги - Спенсер, Ханна, Ария, и Эмили - возвращаются в городок, чтобы попытаться найти пятую подругу – Элисон, которая год назад таинственно исчезла. Но скоро им становится не до поисков лучшей подруги. Оказывается, есть человек, который все про них знает. Это – некий аноним, скрывающийся под псевдонимом «Э». Он шлет им письма, в которых…-Все раздачи сериала
    Сэмпл-Качество: WEB-DLRip
    Формат: AVI
    Видео: XviD, 720x400 (16:9), 23.976 fps, ~1537 kbps, 0.223 bit/pixel
    Аудио 1: RUS, MP3, 48.0 KHz, 2 channels, 128 Kbps
    Аудио 2: ENG, MP3, 48.0 KHz, 2 channels, 128 Kbps
    Субтитры: внешние (SRT) русские, английские (подробнее под спойлером ниже)

    MediaInfo

    General
    Complete name : G:\Video\new\Pretty.Little.Liars (S06) NewStudio\Pretty.Little.Liars.s06e01.WEBDLRip.NewStudio.TV.avi
    Format : AVI
    Format/Info : Audio Video Interleave
    File size : 550 MiB
    Duration : 42mn 33s
    Overall bit rate : 1 807 Kbps
    Writing application : VirtualDubMod 1.5.10.2 (build 2540/release)
    Writing library : VirtualDubMod build 2540/release
    Video
    ID : 0
    Format : MPEG-4 Visual
    Format profile : Advanced Simple@L5
    Format settings, BVOP : 2
    Format settings, QPel : No
    Format settings, GMC : No warppoints
    Format settings, Matrix : Default (MPEG)
    Codec ID : XVID
    Codec ID/Hint : XviD
    Duration : 42mn 33s
    Bit rate : 1 537 Kbps
    Width : 720 pixels
    Height : 400 pixels
    Display aspect ratio : 16:9
    Frame rate : 23.976 fps
    Color space : YUV
    Chroma subsampling : 4:2:0
    Bit depth : 8 bits
    Scan type : Progressive
    Compression mode : Lossy
    Bits/(Pixel*Frame) : 0.223
    Stream size : 468 MiB (85%)
    Writing library : XviD 64
    Audio #1
    ID : 1
    Format : MPEG Audio
    Format version : Version 1
    Format profile : Layer 3
    Mode : Joint stereo
    Mode extension : MS Stereo
    Codec ID : 55
    Codec ID/Hint : MP3
    Duration : 42mn 33s
    Bit rate mode : Constant
    Bit rate : 128 Kbps
    Channel(s) : 2 channels
    Sampling rate : 48.0 KHz
    Compression mode : Lossy
    Stream size : 39.0 MiB (7%)
    Alignment : Aligned on interleaves
    Interleave, duration : 42 ms (1.00 video frame)
    Interleave, preload duration : 504 ms
    Audio #2
    ID : 2
    Format : MPEG Audio
    Format version : Version 1
    Format profile : Layer 3
    Mode : Joint stereo
    Mode extension : MS Stereo
    Codec ID : 55
    Codec ID/Hint : MP3
    Duration : 42mn 33s
    Bit rate mode : Constant
    Bit rate : 128 Kbps
    Channel(s) : 2 channels
    Sampling rate : 48.0 KHz
    Compression mode : Lossy
    Stream size : 39.0 MiB (7%)
    Alignment : Aligned on interleaves
    Interleave, duration : 42 ms (1.00 video frame)
    Interleave, preload duration : 504 ms
    Writing library : LAME3.99r
    Encoding settings : -m j -V 4 -q 2 -lowpass 17 -b 128

    Скриншоты

    График выхода серий в США:

    01 - 02/06/15 - "Game On, Charles"
    02 - 09/06/15 - "Songs of Innocence"
    03 - 16/06/15 - "Songs of Experience"
    04 - 23/06/15 - "Don't Look Now"
    05 - 30/06/15 - "She's No Angel"
    06 - 14/07/15 - "No Stone Unturned"
    07 - 21/07/15 - "Oh Brother, Where Art Thou"
    08 - 28/07/15 - "FrAmed"
    09 - 04/08/15 - "Last Dance"
    10 - 11/08/15 - "Game Over, Charles"
    11 - 12/01/16 - "Of Late I Think of Rosewood"
    12 - 19/01/16 - "Charlotte's Web"
    13 - 26/01/16 - "The Gloves Are On"
    14 - 02/02/16 - "New Guys, New Lies"
    15 - 09/02/16 - "Do Not Disturb"
    16 - 16/02/16 - "Where Somebody Waits For Me"
    17 - 23/02/16 - "We've All Got Baggage"
    18 - 01/03/16 - "Burn This"
    19 - 08/03/16 - "Did You Miss Me?"
    20 - 15/03/16 - "Hush Hush, Sweet Liars"

    О субтитрах

    За русские субтитры спасибо: pllsource и pllonline. Текст местами отредактирован и полностью синхронизирован мной для этого WEB-DLRip. Английские субтитры также подходят лишь к этой раздаче.
    Скачать .torrent

    Скачать торрент-файл бесплатно и на максимальной скорости!

    Как скачивать? · Что такое торрент? · Рейтинг и ограничения

    !ВНИМАНИЕ!
    Сайт не распространяет и не хранит электронные версии произведений, а занимается лишь лишь предоставлением доступа к создаваемому пользователями каталогу ссылок на торрент-файлы, которые содержат только списки хеш-сумм, убедительная просьба с жалобами обращаться напрямую к пользователю. Файлы для обмена на трекере предоставлены пользователями сайта, и администрация не несёт ответственности за их содержание. Просьба не заливать файлы, защищенные авторскими правами, а также файлы нелегального содержания!


    _________________
    [Профиль] [ЛС]
    Показать сообщения:    
    Ответить на тему

    Текущее время: Сегодня, в 11:54

    Часовой пояс: GMT + 2



    Вы не можете начинать темы
    Вы не можете отвечать на сообщения
    Вы не можете редактировать свои сообщения
    Вы не можете удалять свои сообщения
    Вы не можете голосовать в опросах
    Вы не можете прикреплять файлы к сообщениям
    Вы не можете скачивать файлы