BitTorrentTracker PerecTracker.org
BitTorrentTracker PerecTracker.org
    
Регистрация  ·  Вход
 
 · 
Забыли пароль?

  • Астерикс и викинги / Astérix et les Vikings (Стефан Фьелдмарк, Джеспер Мюллер) [2006, Франция, Дания, мультфильм, фэнтези, комедия, приключения, семейный, BDRip HD (720p)] DUB, AVO, Original + SUB (rus, eng)

    Ответить на тему
     
    Автор Сообщение

    Flirldrerve

    Создавать темы 20-Мар-2016 20:49

           

    [Цитировать]

    Астерикс и викинги / Astérix et les Vikings
    "Трепещите, викинги нападают!"
    6.960 / 10
    -Год выпуска: 2006
    Страна: Франция, Дания
    Жанр: мультфильм, фэнтези, комедия, приключения, семейный
    Продолжительность: 78 мин.
    Перевод: Профессиональный дублированный перевод и одноголосый закадровый авторский перевод
    Оригинальная аудиодорожка: Есть
    Cубтитры: Русские полные и английские полные
    Режиссёр: Стефан Фьелдмарк, Джеспер Мюллер
    Сценарий: Жан-Люк Гусенс, Стефан Фьелдмарк, Рене Госинни
    Продюсер: Томас Валентин, Натали Альтман, Малика Брахми
    Композитор: Александр Азария
    Монтаж: Андерс Хоффманн, Мартин Вихман
    В ролях: Роже Карель, Лоран Дойч, Сара Форестье, Жак Франц, Пьер Палмаде, Пьер Черния, Бернар Алан, Марк Альфос, Жуль Азем, Патрик Борг
    Роли дублировали: Вячеслав Баранов, Пётр Иващенко
    Сборы в России: $540 000
    Мировая премьера: 5 апреля 2006
    Премьера (РФ): 24 августа 2006, Каро-Премьер
    Релиз на DVD: 14 апреля 2009, Азимут
    Описание: Астерикс и его друг Обеликс впервые в своей жизни должны встретиться с викингами. Бесстрашные воины из северной страны выкрали племянника вождя галлов, юного Задиру. Миссия чрезвычайно опасна, так как викинги слывут отчаянными и безжалостными воинами...-Качество исходника: BD-Remux 1080p (HDClub)
    Качество: BDRip
    Тип: 720p
    Контейнер: m4v
    Видео: 1280x688 at 23.976 fps, MPEG-4 AVC, ~2100 kbps avg
    Аудио#1: Russian: 48 kHz, ААС, 2/0 (L,R), ~160.00 kbps avg |Дубляж, R5|
    Аудио#2: Russian: 48 kHz, ААС, 2/0 (L,R), ~160.00 kbps avg |Одноголосый закадровый, Ю. Живов|
    Аудио#3: English: 48 kHz, ААС, 2/0 (L,R), ~160.00 kbps avg
    Аудио#4: Russian: 48 kHz, AC3, 3/2 (L,C,R,l,r) + LFE ch, ~640.00 kbps avg |Дубляж, R5|
    Аудио#5: Russian: 48 kHz, AC3, 3/2 (L,C,R,l,r) + LFE ch, ~640.00 kbps avg |Одноголосый закадровый, Ю. Живов|
    Аудио#6: English: 48 kHz, AC3, 3/2 (L,C,R,l,r) + LFE ch, ~640.00 kbps avg
    Субтитры №1: Russian: |Полные|
    Субтитры №2: English: |Полные|-

    iTunes MetaTag

    Sort Name: Astérix et les Vikings
    XID: Apple:vendor_id:2006-196872
    contentID: 196872
    Screenwriters: Жан-Люк Гусенс, Стефан Фьелдмарк, Рене Госинни
    Producers: Томас Валентин, Натали Альтман, Малика Брахми
    Director: Стефан Фьелдмарк, Джеспер Мюллер
    Cast: Роже Карель, Лоран Дойч, Сара Форестье, Жак Франц, Пьер Палмаде, Пьер Черния, Бернар Алан, Марк Альфос, Жуль Азем, Патрик Борг
    Rating: 60
    Long Description: Астерикс и его друг Обеликс впервые в своей жизни должны встретиться с викингами. Бесстрашные воины из северной страны выкрали племянника вождя галлов, юного Задиру. Миссия чрезвычайно опасна, так как викинги слывут отчаянными и безжалостными воинами...
    Description: Астерикс и его друг Обеликс впервые в своей жизни должны встретиться с викингами. Бесстрашные воины из северной страны выкрали племянника вождя галлов, юного Задиру. Миссия чрезвычайно опасна, так как викинги слывут отчаянными и безжалостными воинами...
    Release Date: 2006-04-05T08:00:00Z
    Genre: Kids & Family
    Artist: Stefan Fjeldmark, Jesper Møller
    Name: Astérix et les Vikings

    -

    MediaInfo 720p Release

    Общее
    Полное имя : Astérix et les Vikings (HD).m4v
    Формат : MPEG-4
    Идентификатор кодека : M4V  (M4V /M4A /mp42/isom)
    Размер файла : 2,47 Гбайт
    Продолжительность : 1 ч. 18 м.
    Режим общего битрейта : Переменный
    Общий поток : 4526 Кбит/сек
    Название фильма : Astérix et les Vikings
    Исполнитель : Stefan Fjeldmark, Jesper Møller
    Режиссёр : Стефан Фьелдмарк / Джеспер Мюллер
    Исполнитель : Роже Карель / Лоран Дойч / Сара Форестье / Жак Франц / Пьер Палмаде / Пьер Черния / Бернар Алан / Марк Альфос / Жуль Азем / Патрик Борг
    Сценарист : Жан-Люк Гусенс / Стефан Фьелдмарк / Рене Госинни
    Продюсер : Томас Валентин / Натали Альтман / Малика Брахми
    Жанр : Kids & Family
    Тип содержимого : Short Film
    Описание : Астерикс и его друг Обеликс впервые в своей жизни должны встретиться с викингами. Бесстрашные воины из северной страны выкрали племянника вождя галлов, юного Задиру. Миссия чрезвычайно опасна, так как викинги слывут отчаянными и безжалостными воинами...
    Дата записи : UTC 2006-04-05 08:00:00
    Дата кодирования : UTC 2016-03-20 15:15:56
    Дата пометки : UTC 2016-03-20 15:51:58
    Обложка : Yes
    Оценка : None
    Title/Sort : Astérix et les Vikings
    LongDescription : Астерикс и его друг Обеликс впервые в своей жизни должны встретиться с викингами. Бесстрашные воины из северной страны выкрали племянника вождя галлов, юного Задиру. Миссия чрезвычайно опасна, так как викинги слывут отчаянными и безжалостными воинами...
    HDVideo : Yes
    AppleStoreCatalogID : 196872
    Vendor : Apple:vendor_id:2006-196872
    ContentRating : fr-movie|Tout public|000|
    Видео #1
    Идентификатор : 1
    Формат : AVC
    Формат/Информация : Advanced Video Codec
    Профиль формата : High@L3.1
    Параметр CABAC формата : Нет
    Параметр ReFrames формата : 3 кадра
    Идентификатор кодека : avc1
    Идентификатор кодека/Информация : Advanced Video Coding
    Продолжительность : 1 ч. 18 м.
    Продолжительность оригинала : 1 ч. 18 м.
    Битрейт : 2100 Кбит/сек
    Ширина : 1280 пикселей
    Высота : 688 пикселей
    Соотношение сторон : 1,85:1
    Режим частоты кадров : Переменный
    Частота кадров : 24,000 кадра/сек
    Минимальная частота кадров : 12,048 кадров/сек
    Максимальная частота кадров : 24,390 кадра/сек
    Цветовое пространство : YUV
    Субдискретизация насыщенности : 4:2:0
    Битовая глубина : 8 бит
    Тип развёртки : Прогрессивная
    Бит/(Пиксели*Кадры) : 0.099
    Размер потока : 1,15 Гбайт (46%)
    Размер потока оригинала : 1,15 Гбайт (46%)
    Заголовок : Main Program
    Библиотека кодирования : x264 core 112
    Настройки программы : cabac=0 / ref=3 / deblock=1:0:0 / analyse=0x3:0x113 / me=umh / subme=9 / psy=1 / psy_rd=1.00:0.00 / mixed_ref=0 / me_range=16 / chroma_me=1 / trellis=0 / 8x8dct=1 / cqm=0 / deadzone=21,11 / fast_pskip=1 / chroma_qp_offset=-2 / threads=6 / sliced_threads=0 / nr=0 / decimate=0 / interlaced=0 / constrained_intra=0 / bframes=3 / b_pyramid=0 / b_adapt=2 / b_bias=0 / direct=3 / weightb=0 / open_gop=0 / weightp=0 / keyint=240 / keyint_min=23 / scenecut=40 / intra_refresh=0 / rc_lookahead=40 / rc=2pass / mbtree=1 / bitrate=2100 / ratetol=1.0 / qcomp=0.60 / qpmin=3 / qpmax=51 / qpstep=4 / cplxblur=20.0 / qblur=0.5 / vbv_maxrate=9500 / vbv_bufsize=9500 / ip_ratio=1.40 / aq=1:1.00 / nal_hrd=none
    Язык : French
    Дата кодирования : UTC 2016-03-20 15:15:56
    Дата пометки : UTC 2016-03-20 15:18:01
    Цветовой диапазон : Limited
    Основные цвета : BT.709
    Характеристики трансфера : BT.709
    Коэффициенты матрицы : BT.709
    Menus : 10,11
    Видео #2
    Идентификатор : 11
    Формат : JPEG
    Идентификатор кодека : jpeg
    Продолжительность : 1 ч. 18 м.
    Вид битрейта : Переменный
    Битрейт : 720 бит/сек
    Ширина : 640 пикселей
    Высота : 344 пикселя
    Соотношение сторон : 1,85:1
    Режим частоты кадров : Переменный
    Частота кадров : 0,002 кадр/сек
    Минимальная частота кадров : 0,001 кадр/сек
    Максимальная частота кадров : 0,003 кадр/сек
    Цветовое пространство : YUV
    Субдискретизация насыщенности : 4:2:0
    Битовая глубина : 8 бит
    Метод сжатия : С потерями
    Бит/(Пиксели*Кадры) : 1.635
    Размер потока : 439 Кбайт (0%)
    Заголовок : Chapter Images
    Язык : French
    Default : Нет
    Дата кодирования : UTC 2016-03-20 15:51:36
    Дата пометки : UTC 2016-03-20 15:51:36
    Menu For : 1
    Аудио #1
    Идентификатор : 2
    Формат : AAC
    Формат/Информация : Advanced Audio Codec
    Профиль формата : LC
    Идентификатор кодека : 40
    Продолжительность : 1 ч. 18 м.
    Вид битрейта : Переменный
    Битрейт : 165 Кбит/сек
    Максимальный битрейт : 266 Кбит/сек
    Каналы : 2 канала
    Расположение каналов : Front: L R
    Частота : 48,0 КГц
    Частота кадров : 46,875 кадров/сек (1024 spf)
    Метод сжатия : С потерями
    Размер потока : 92,2 Мбайт (4%)
    Заголовок : Russian DUB R5 Stereo
    Язык : Russian
    Default : Да
    Alternate group : 1
    Дата кодирования : UTC 2016-03-20 15:15:56
    Дата пометки : UTC 2016-03-20 15:17:04
    Fallback From : 5
    Menus : 10
    Аудио #2
    Идентификатор : 3
    Формат : AAC
    Формат/Информация : Advanced Audio Codec
    Профиль формата : LC
    Идентификатор кодека : 40
    Продолжительность : 1 ч. 18 м.
    Вид битрейта : Переменный
    Битрейт : 164 Кбит/сек
    Максимальный битрейт : 261 Кбит/сек
    Каналы : 2 канала
    Расположение каналов : Front: L R
    Частота : 48,0 КГц
    Частота кадров : 46,875 кадров/сек (1024 spf)
    Метод сжатия : С потерями
    Размер потока : 91,8 Мбайт (4%)
    Заголовок : Russian AVO U.Zhivov Stereo
    Язык : Russian
    Default : Нет
    Alternate group : 1
    Дата кодирования : UTC 2016-03-20 15:15:56
    Дата пометки : UTC 2016-03-20 15:17:05
    Fallback From : 6
    Аудио #3
    Идентификатор : 4
    Формат : AAC
    Формат/Информация : Advanced Audio Codec
    Профиль формата : LC
    Идентификатор кодека : 40
    Продолжительность : 1 ч. 18 м.
    Вид битрейта : Переменный
    Битрейт : 165 Кбит/сек
    Максимальный битрейт : 280 Кбит/сек
    Каналы : 2 канала
    Расположение каналов : Front: L R
    Частота : 48,0 КГц
    Частота кадров : 46,875 кадров/сек (1024 spf)
    Метод сжатия : С потерями
    Размер потока : 92,4 Мбайт (4%)
    Заголовок : French Stereo
    Язык : French
    Default : Нет
    Alternate group : 1
    Дата кодирования : UTC 2016-03-20 15:15:56
    Дата пометки : UTC 2016-03-20 15:17:13
    Fallback From : 7
    Аудио #4
    Идентификатор : 5
    Формат : AC-3
    Формат/Информация : Audio Coding 3
    Расширение режима : CM (complete main)
    Параметр Endianness формата : Big
    Идентификатор кодека : ac-3
    Продолжительность : 1 ч. 18 м.
    Вид битрейта : Постоянный
    Битрейт : 640 Кбит/сек
    Каналы : 6 каналов
    Расположение каналов : Front: L C R, Side: L R, LFE
    Частота : 48,0 КГц
    Частота кадров : 31,250 кадров/сек (1536 spf)
    Битовая глубина : 16 бит
    Метод сжатия : С потерями
    Размер потока : 358 Мбайт (14%)
    Заголовок : Russian DUB R5 DD 5.1
    Язык : Russian
    Default : Inherited From: 2
    Alternate group : 1
    Дата кодирования : UTC 2016-03-20 15:32:40
    Дата пометки : UTC 2016-03-20 15:33:18
    Fallback To : 2
    Аудио #5
    Идентификатор : 6
    Формат : AC-3
    Формат/Информация : Audio Coding 3
    Расширение режима : CM (complete main)
    Параметр Endianness формата : Big
    Идентификатор кодека : ac-3
    Продолжительность : 1 ч. 18 м.
    Вид битрейта : Постоянный
    Битрейт : 640 Кбит/сек
    Каналы : 6 каналов
    Расположение каналов : Front: L C R, Side: L R, LFE
    Частота : 48,0 КГц
    Частота кадров : 31,250 кадров/сек (1536 spf)
    Битовая глубина : 16 бит
    Метод сжатия : С потерями
    Размер потока : 358 Мбайт (14%)
    Заголовок : Russian AVO U.Zhivov DD 5.1
    Язык : Russian
    Default : Нет
    Alternate group : 1
    Дата кодирования : UTC 2016-03-20 15:49:23
    Дата пометки : UTC 2016-03-20 15:49:54
    Fallback To : 3
    Аудио #6
    Идентификатор : 7
    Формат : AC-3
    Формат/Информация : Audio Coding 3
    Расширение режима : CM (complete main)
    Параметр Endianness формата : Big
    Идентификатор кодека : ac-3
    Продолжительность : 1 ч. 18 м.
    Вид битрейта : Постоянный
    Битрейт : 640 Кбит/сек
    Каналы : 6 каналов
    Расположение каналов : Front: L C R, Side: L R, LFE
    Частота : 48,0 КГц
    Частота кадров : 31,250 кадров/сек (1536 spf)
    Битовая глубина : 16 бит
    Метод сжатия : С потерями
    Размер потока : 358 Мбайт (14%)
    Заголовок : French DD 5.1
    Язык : French
    Default : Нет
    Alternate group : 1
    Дата кодирования : UTC 2016-03-20 15:50:33
    Дата пометки : UTC 2016-03-20 15:51:15
    Fallback To : 4
    Текст #1
    Идентификатор : 8
    Формат : Timed Text
    Режим смешивания : sbtl
    Идентификатор кодека : tx3g
    Продолжительность : 1 ч. 10 м.
    Вид битрейта : Переменный
    Битрейт : 88 бит/сек
    Размер потока : 45,5 Кбайт (0%)
    Заголовок : Russian Subtitle
    Язык : Russian
    Default : Да
    Forced : Нет
    Alternate group : 2
    Дата кодирования : UTC 2016-03-20 15:50:33
    Дата пометки : UTC 2016-03-20 15:50:33
    Текст #2
    Идентификатор : 9
    Формат : Timed Text
    Режим смешивания : sbtl
    Идентификатор кодека : tx3g
    Продолжительность : 1 ч. 10 м.
    Вид битрейта : Переменный
    Битрейт : 61 бит/сек
    Размер потока : 31,9 Кбайт (0%)
    Заголовок : English Subtitle
    Язык : English
    Default : Нет
    Forced : Нет
    Alternate group : 2
    Дата кодирования : UTC 2016-03-20 15:50:33
    Дата пометки : UTC 2016-03-20 15:50:33
    Меню #1
    00:00:00.000 : 1
    00:08:04.775 : 2
    00:13:47.368 : 3
    00:22:53.580 : 4
    00:31:30.930 : 5
    00:38:48.325 : 6
    00:47:10.494 : 7
    00:54:17.253 : 8
    01:00:47.602 : 9
    01:06:18.891 : 10
    Меню #2
    Идентификатор : 10
    Идентификатор кодека : text
    Продолжительность : 1 ч. 18 м.
    Заголовок : Chapter Titles
    Язык : French
    Дата кодирования : UTC 2016-03-20 15:51:33
    Дата пометки : UTC 2016-03-20 15:51:33
    Menu For : 2,1
    00:00:00.000 : 1
    00:08:04.775 : 2
    00:13:47.368 : 3
    00:22:53.580 : 4
    00:31:30.930 : 5
    00:38:48.325 : 6
    00:47:10.494 : 7
    00:54:17.253 : 8
    01:00:47.602 : 9
    01:06:18.891 : 10
    Вид битрейта : VBR

    x264 лог 720p Release

    x264 [info]: frame I:1374  Avg QP:16.64  size: 84532  PSNR Mean Y:48.43 U:49.65 V:49.96 Avg:48.77 Global:48.36
    x264 [info]: frame P:50383 Avg QP:19.30  size: 18596  PSNR Mean Y:46.57 U:49.08 V:49.37 Avg:47.18 Global:46.67
    x264 [info]: frame B:60876 Avg QP:23.38  size:  2936  PSNR Mean Y:46.16 U:49.56 V:49.88 Avg:46.85 Global:46.32
    x264 [info]: consecutive B-frames:  7.2% 50.7% 26.3% 15.8%
    x264 [info]: mb I  I16..4: 25.8% 33.4% 40.8%
    x264 [info]: mb P  I16..4:  4.6%  2.9%  3.3%  P16..4: 31.7%  9.1%  4.1%  0.0%  0.0%    skip:44.4%
    x264 [info]: mb B  I16..4:  0.7%  0.2%  0.3%  B16..8: 22.1%  2.9%  0.4%  direct: 1.1%  skip:72.3%  L0:42.9% L1:52.9% BI: 4.2%
    x264 [info]: 8x8 transform intra:27.3% inter:34.8%
    x264 [info]: direct mvs  spatial:93.9% temporal:6.1%
    x264 [info]: coded y,uvDC,uvAC intra: 43.8% 61.8% 45.3% inter: 7.3% 9.9% 6.6%
    x264 [info]: i16 v,h,dc,p: 56% 26%  5% 12%
    x264 [info]: i8 v,h,dc,ddl,ddr,vr,hd,vl,hu:  8% 12% 14% 10% 11% 10% 13%  9% 12%
    x264 [info]: i4 v,h,dc,ddl,ddr,vr,hd,vl,hu: 13% 16% 16%  9% 11% 10% 11%  7%  7%
    x264 [info]: i8c dc,h,v,p: 52% 23% 18%  7%
    x264 [info]: ref P L0: 65.9% 21.0% 13.1%
    x264 [info]: ref B L0: 77.8% 22.2%
    x264 [info]: SSIM Mean Y:0.9920920 (21.019db)
    x264 [info]: PSNR Mean Y:46.374 U:49.347 V:49.657 Avg:47.018 Global:46.495 kb/s:2099.83

    Скриншоты 720p Release


    -
    Цитата:
    Цитата:

    ВНИМАНИЕ!!! Релиз полностью переделан 20 марта 2016 года. Видео оставлено без изменения, а вот звук полностью переделан с нуля. Добавлена дорога Юрия Живова и добавлены русские и английские субититры!


    Релиз подготовлен для просмотра на Apple TV, iPad, iPhone, iPod Touch.
    Для просмотра данного релиза на компьютере с ОС Windows рекомендуется использовать VLC media player
    Скачать .torrent

    Скачать торрент-файл бесплатно и на максимальной скорости!

    Как скачивать? · Что такое торрент? · Рейтинг и ограничения

    !ВНИМАНИЕ!
    Сайт не распространяет и не хранит электронные версии произведений, а занимается лишь лишь предоставлением доступа к создаваемому пользователями каталогу ссылок на торрент-файлы, которые содержат только списки хеш-сумм, убедительная просьба с жалобами обращаться напрямую к пользователю. Файлы для обмена на трекере предоставлены пользователями сайта, и администрация не несёт ответственности за их содержание. Просьба не заливать файлы, защищенные авторскими правами, а также файлы нелегального содержания!


    _________________
    [Профиль] [ЛС]
    Показать сообщения:    
    Ответить на тему

    Текущее время: Сегодня, в 14:13

    Часовой пояс: GMT + 2



    Вы не можете начинать темы
    Вы не можете отвечать на сообщения
    Вы не можете редактировать свои сообщения
    Вы не можете удалять свои сообщения
    Вы не можете голосовать в опросах
    Вы не можете прикреплять файлы к сообщениям
    Вы не можете скачивать файлы