BitTorrentTracker PerecTracker.org
BitTorrentTracker PerecTracker.org
    
Регистрация  ·  Вход
 
 · 
Забыли пароль?

  • Тайное общество Супилинна / Supilinna Salaselts / The Secret Society of Souptown (Маргус Пайу / Margus Paju) [2015, Эстония, Финляндия, фэнтези, боевик, детектив, приключения, семейный, BDRip 720p] Dub + Original Est + Sub (Rus, Est, Eng, Fre)

    Ответить на тему
     
    Автор Сообщение

    Light

    Создавать темы 20-Мар-2016 20:49

           

    [Цитировать]

    Тайное общество Супилинна / Supilinna Salaselts / The Secret Society of Souptown____________________________________________________________________________________________
    Страна: Эстония, Финляндия
    Студия: Nafta, Solar Films
    Жанр: фэнтези, боевик, детектив, приключения, семейный
    Год выпуска: 2015
    Продолжительность: 01:44:47
    Перевод: Профессиональный (дублированный) | Blu-Ray
    Оригинальная аудиодорожка: эстонский
    Cубтитры: русские, эстонские, английские, французкие
    Режиссер: Маргус Пайу / Margus Paju
    В ролях: Арго Адли, Отт Аардам, Арабелла Антон, Kaido Höövelson, Грегор Келдер, Edgar Külaots, Meriliis Lillemägi, Tiit Lilleorg, Айн Лутсепп, Лаури Небель
    Описание: В очередные летние каникулы четверо детей - Мари, Саду, Олав и Антон - решили организовать команду. Чтобы дети не болтались без дела по городу, дедушка Мари придумал для них интересную игру. Они должны разыскивать в определенных местах предметы, которые он указывал на карте. Но в эту игру вмешалось одно обстоятельство. Кто-то в городе стал распространять странное вещество, от которого взрослые своим поведением стали напоминать детей. Теперь эта четверка должна остановить злодея и найти противоядие, чтобы спасти своих родственников и знакомых.
    ____________________________________________________________________________________________

    Релиз: by delia
    Видеоряд: SbR
    Тип релиза: BDRip 720p
    Контейнер: MKV
    Видео: 1280x536 at 25.000 fps, x264@L4.1, ~ 5608 kbps avg
    Аудио 1: Russian: 48 kHz, AC3, 3/2 (L,C,R,l,r) + LFE ch, ~448 kbps avg |Дубляж, Blu-Ray|
    Аудио 2: Estonian: 48 kHz, AC3, 3/2 (L,C,R,l,r) + LFE ch, ~448 kbps avg |Original|
    Cубтитры: Russian, Estonian, English, French

    MediaInfo

    General
    Unique ID : 174020002128742329427449603669110635511 (0x82EB08867E54428FA74F8DCC20793BF7)
    Complete name : D:\Supilinna.Salaselts.2015.720p.BluRay.Rus.Est.HDCLUB-SbR.mkv
    Format : Matroska
    Format version : Version 4 / Version 2
    File size : 4.76 GiB
    Duration : 1h 44mn
    Overall bit rate : 6 507 Kbps
    Encoded date : UTC 2016-03-18 07:57:24
    Writing application : mkvmerge v8.3.0 ('Over the Horizon') 64bit
    Writing library : libebml v1.3.1 + libmatroska v1.4.2
    Cover : Yes
    Attachments : cover.jpg
    Video
    ID : 1
    Format : AVC
    Format/Info : Advanced Video Codec
    Format profile : High@L4.1
    Format settings, CABAC : Yes
    Format settings, ReFrames : 12 frames
    Codec ID : V_MPEG4/ISO/AVC
    Duration : 1h 44mn
    Bit rate : 5 608 Kbps
    Width : 1 280 pixels
    Height : 536 pixels
    Display aspect ratio : 2.40:1
    Frame rate mode : Constant
    Frame rate : 25.000 fps
    Color space : YUV
    Chroma subsampling : 4:2:0
    Bit depth : 8 bits
    Scan type : Progressive
    Bits/(Pixel*Frame) : 0.327
    Stream size : 4.10 GiB (86%)
    Writing library : x264 core 148 r2665+53 6629127 t_mod_Custom [8-bit@all X86_64]
    Encoding settings : cabac=1 / ref=12 / deblock=1:-3:-3 / analyse=0x3:0x133 / me=umh / subme=11 / psy=1 / fade_compensate=0.00 / psy_rd=1.05:0.05 / mixed_ref=1 / me_range=24 / chroma_me=1 / trellis=2 / 8x8dct=1 / cqm=0 / deadzone=21,11 / fast_pskip=0 / chroma_qp_offset=-3 / threads=6 / lookahead_threads=1 / sliced_threads=0 / nr=0 / decimate=1 / interlaced=0 / bluray_compat=0 / constrained_intra=0 / fgo=0 / bframes=9 / b_pyramid=2 / b_adapt=2 / b_bias=0 / direct=3 / weightb=1 / open_gop=0 / weightp=2 / keyint=250 / keyint_min=25 / scenecut=40 / intra_refresh=0 / rc_lookahead=60 / rc=crf / mbtree=0 / crf=17.0000 / qcomp=0.63 / qpmin=0:0:0 / qpmax=69:69:69 / qpstep=4 / vbv_maxrate=62500 / vbv_bufsize=78125 / crf_max=0.0 / nal_hrd=none / filler=0 / ip_ratio=1.30 / pb_ratio=1.20 / aq=1:0.80 / aq-sensitivity=10.00 / aq-factor=1.00:1.00:1.00 / aq2=1:0.75 / aq2-sensitivity=15.00 / aq2-factor=1.00:1.00:1.00 / aq3=1:[0.70:0.70]:[0.70:0.70]:[0.70:0.70]:[0.70:0.70] / aq3-sensitivity=10.00 / aq3-factor=[1.00:1.00]:[1.00:1.00]:[1.00:1.00] / aq3-boundary=192:64:24
    Language : English
    Default : Yes
    Forced : No
    Color range : Limited
    Color primaries : BT.709
    Transfer characteristics : BT.709
    Matrix coefficients : BT.709
    Audio #1
    ID : 2
    Format : AC-3
    Format/Info : Audio Coding 3
    Mode extension : CM (complete main)
    Format settings, Endianness : Big
    Codec ID : A_AC3
    Duration : 1h 44mn
    Bit rate mode : Constant
    Bit rate : 448 Kbps
    Channel(s) : 6 channels
    Channel positions : Front: L C R, Side: L R, LFE
    Sampling rate : 48.0 KHz
    Frame rate : 31.250 fps (1536 spf)
    Compression mode : Lossy
    Stream size : 336 MiB (7%)
    Title : Дубляж
    Language : Russian
    Default : Yes
    Forced : No
    Audio #2
    ID : 3
    Format : AC-3
    Format/Info : Audio Coding 3
    Mode extension : CM (complete main)
    Format settings, Endianness : Big
    Codec ID : A_AC3
    Duration : 1h 44mn
    Bit rate mode : Constant
    Bit rate : 448 Kbps
    Channel(s) : 6 channels
    Channel positions : Front: L C R, Side: L R, LFE
    Sampling rate : 48.0 KHz
    Frame rate : 31.250 fps (1536 spf)
    Compression mode : Lossy
    Stream size : 336 MiB (7%)
    Language : Estonian
    Default : No
    Forced : No
    Text #1
    ID : 4
    Format : UTF-8
    Codec ID : S_TEXT/UTF8
    Codec ID/Info : UTF-8 Plain Text
    Duration : 1h 43mn
    Bit rate : 72 bps
    Count of elements : 876
    Stream size : 55.2 KiB (0%)
    Language : Russian
    Default : No
    Forced : No
    Text #2
    ID : 5
    Format : UTF-8
    Codec ID : S_TEXT/UTF8
    Codec ID/Info : UTF-8 Plain Text
    Duration : 1h 43mn
    Bit rate : 50 bps
    Count of elements : 1038
    Stream size : 38.4 KiB (0%)
    Language : Estonian
    Default : No
    Forced : No
    Text #3
    ID : 6
    Format : UTF-8
    Codec ID : S_TEXT/UTF8
    Codec ID/Info : UTF-8 Plain Text
    Duration : 1h 43mn
    Bit rate : 44 bps
    Count of elements : 1008
    Stream size : 33.3 KiB (0%)
    Language : English
    Default : No
    Forced : No
    Text #4
    ID : 7
    Format : UTF-8
    Codec ID : S_TEXT/UTF8
    Codec ID/Info : UTF-8 Plain Text
    Duration : 1h 43mn
    Bit rate : 55 bps
    Count of elements : 1098
    Stream size : 41.7 KiB (0%)
    Language : French
    Default : No
    Forced : No
    Menu
    00:00:00.000 : en:00:00:00.000
    00:09:46.800 : en:00:09:46.800
    00:18:51.640 : en:00:18:51.640
    00:30:07.240 : en:00:30:07.240
    00:39:42.160 : en:00:39:42.160
    00:50:14.120 : en:00:50:14.120
    01:00:32.680 : en:01:00:32.680
    01:11:20.400 : en:01:11:20.400
    01:20:00.000 : en:01:20:00.000
    01:30:00.000 : en:01:30:00.000
    01:39:04.320 : en:01:39:04.320

    Скриншоты


    Скачать .torrent

    Скачать торрент-файл бесплатно и на максимальной скорости!

    Как скачивать? · Что такое торрент? · Рейтинг и ограничения

    !ВНИМАНИЕ!
    Сайт не распространяет и не хранит электронные версии произведений, а занимается лишь лишь предоставлением доступа к создаваемому пользователями каталогу ссылок на торрент-файлы, которые содержат только списки хеш-сумм, убедительная просьба с жалобами обращаться напрямую к пользователю. Файлы для обмена на трекере предоставлены пользователями сайта, и администрация не несёт ответственности за их содержание. Просьба не заливать файлы, защищенные авторскими правами, а также файлы нелегального содержания!


    _________________
    [Профиль] [ЛС]
    Показать сообщения:    
    Ответить на тему

    Текущее время: Сегодня, в 19:57

    Часовой пояс: GMT + 2



    Вы не можете начинать темы
    Вы не можете отвечать на сообщения
    Вы не можете редактировать свои сообщения
    Вы не можете удалять свои сообщения
    Вы не можете голосовать в опросах
    Вы не можете прикреплять файлы к сообщениям
    Вы не можете скачивать файлы