BitTorrentTracker PerecTracker.org
BitTorrentTracker PerecTracker.org
    
Регистрация  ·  Вход
 
 · 
Забыли пароль?

  • Убийца / Sicario (Дени Вильнёв / Denis Villeneuve ) [2015, США, Боевик, триллер, драма, криминал, детектив, BDRip, HD (720p)] DUB + Original + sub (rus, eng)

    Ответить на тему
     
    Автор Сообщение

    rechyn

    Создавать темы 20-Мар-2016 20:49

           

    [Цитировать]

    Убийца / Sicario
    «The border is just another line to cross»
    7.063 / 10 7.70 / 10
    -Год выпуска: 2015
    Страна: США
    Жанр: Боевик, триллер, драма, криминал, детектив
    Продолжительность: 02:01:20
    Перевод: Дублированный (iTunes)
    Оригинальная аудиодорожка: Есть
    Cубтитры: Русские форсированные, Английские форсированные, Русские, Английские
    Режиссёр: Дени Вильнёв
    Сценарий: Тейлор Шеридан
    Продюсер: Бэзил Иваник, Тэд Лакинбилл, Трент Лакинбилл
    Оператор: Роджер Дикинс
    Композитор: Йохан Йоханнссон
    Художник: Патрис Верметт, Пол Д. Келли, Бьярне Слеттелэнд
    Монтаж: Джо Уокер
    В ролях: Эмили Блант, Бенисио Дель Торо, Джош Бролин, Виктор Гарбер, Джон Бернтал, Дэниэл Калуя, Джеффри Донован, Рауль Трухильо, Хулио Седильо, Хэнк Роджерсон
    Бюджет: $30 000 000
    Сборы в США: $46 889 293
    Сборы в мире: + $33 664 532 = $80 553 825
    Сборы в России: $339 682
    Мировая премьера: 19 мая 2015
    Премьера (РФ): 26 ноября 2015, «WDSSPR»
    Описание: Безлюдные пустоши, по которым проходит граница между Мексикой и США, - это территория без правил, поле битвы между мексиканскими наркокартелями и американскими спецслужбами. Агент ФБР Кейт Мэйсер, которая работает в приграничных районах, старается придерживаться собственных идеалов, хотя и начинает ощущать, что исход войны с наркотрафиком складывается не в пользу служителей закона. Однажды ей предоставляется шанс принять участие в работе элитного подразделения по борьбе с наркотиками, возглавляемого агентом Мэттом Грейвером. Самый загадочный участник команды - местный консультант, человек без имени, привычек, и, кажется, без прошлого. Его истинное лицо откроется только в ходе рискованной операции, во время которой Кейт будет вынуждена поступиться собственными принципами, чтобы остаться в живых.-Качество исходника: Blu-Ray (BlueBird)
    Качество: BDRip
    Тип: HD (720p)
    Контейнер: M4V
    Видео: H.264, 1280x536, 2.40:1, 3 500 Kbps, 23.976 (24000/1001) fps
    Аудио 1: Русский/Дублированный (iTunes), AAC / 2.0 / 157 Kbps / 48.0 KHz
    Аудио 2: Английский/Оригинальная дорожка , AAC / 2.0 / 156 Kbps / 48.0 KHz
    Аудио 3: Русский/Дублированный (iTunes), AC-3 / 5.1 / 384 Kbps / 48.0 KHz
    Аудио 4: Английский/Оригинальная дорожка , AC-3 / 5.1 / 640 Kbps / 48.0 KHz
    Субтитры 1: Русские форсированные
    Субтитры 2: Английские форсированные
    Субтитры 3: Русские полные
    Субтитры 4: Английские полные
    -

    iTunes Meta Tags

    Sort Name: Sicario
    XID: Apple:vendor_id:2015-817324
    contentID: 1040631578
    Screenwriters: Тейлор Шеридан
    Producers: Бэзил Иваник, Тэд Лакинбилл, Трент Лакинбилл
    Director: Дени Вильнёв
    Cast: Эмили Блант, Бенисио Дель Торо, Джош Бролин, Виктор Гарбер, Джон Бернтал, Дэниэл Калуя, Джеффри Донован, Рауль Трухильо, Хулио Седильо, Хэнк Роджерсон, Сергей Чихачев
    Studio: Lionsgate
    Rating: 5
    Long Description: Безлюдные пустоши, по которым проходит граница между Мексикой и США, - это территория без правил, поле битвы между мексиканскими наркокартелями и американскими спецслужбами. Агент ФБР Кейт Мэйсер, которая работает в приграничных районах, старается придерживаться собственных идеалов, хотя и начинает ощущать, что исход войны с наркотрафиком складывается не в пользу служителей закона. Однажды ей предоставляется шанс принять участие в работе элитного подразделения по борьбе с наркотиками, возглавляемого агентом Мэттом Грейвером. Самый загадочный участник команды - местный консультант, человек без имени, привычек, и, кажется, без прошлого. Его истинное лицо откроется только в ходе рискованной операции, во время которой Кейт будет вынуждена поступиться собственными принципами, чтобы остаться в живых.
    Description: Безлюдные пустоши, по которым проходит граница между Мексикой и США, - это территория без правил, поле битвы между мексиканскими наркокартелями и американскими спецслужбами. Агент ФБР Кейт Мэйсер, которая работает в приграничных районах, старается придерживаться собственных идеалов, хотя и начинает ощущать, что исход войны с наркотрафиком складывается не в пользу служителей закона.
    Release Date: 2015-05-19T08:00:00Z
    Genre: Thriller
    Artist: Denis Villeneuve
    Name: Sicario

    MediaInfo

    General
    Complete name : /Users/imac/HandBrake/Sicario (720p HD).m4v
    Format : MPEG-4
    Codec ID : M4V  (M4V /M4A /mp42/isom)
    File size : 4.10 GiB
    Duration : 2h 1mn
    Overall bit rate mode : Variable
    Overall bit rate : 4 841 Kbps
    Movie name : Sicario
    Performer : Denis Villeneuve
    Director : Дени Вильнёв
    Actor : Эмили Блант / Бенисио Дель Торо / Джош Бролин / Виктор Гарбер / Джон Бернтал / Дэниэл Калуя / Джеффри Донован / Рауль Трухильо / Хулио Седильо / Хэнк Роджерсон / Сергей Чихачев
    Screenplay by : Тейлор Шеридан
    Producer : Бэзил Иваник / Тэд Лакинбилл / Трент Лакинбилл
    Production studio : Lionsgate
    Genre : Thriller
    ContentType : Short Film
    Description : Безлюдные пустоши, по которым проходит граница между Мексикой и США, - это территория без правил, поле битвы между мексиканскими наркокартелями и американскими спецслужбами. Агент ФБР Кейт Мэйсер, которая работает в приграничных районах, старается придерживаться собственных идеалов, хотя и начинает ощущать, что исход войны с наркотрафиком складывается не в пользу служителей закона.
    Recorded date : UTC 2015-05-19 08:00:00
    Encoded date : UTC 2016-03-20 14:30:54
    Tagged date : UTC 2016-03-20 14:33:48
    Cover : Yes
    Rating : None
    Title/Sort : Sicario
    LongDescription : Безлюдные пустоши, по которым проходит граница между Мексикой и США, - это территория без правил, поле битвы между мексиканскими наркокартелями и американскими спецслужбами. Агент ФБР Кейт Мэйсер, которая работает в приграничных районах, старается придерживаться собственных идеалов, хотя и начинает ощущать, что исход войны с наркотрафиком складывается не в пользу служителей закона. Однажды ей предоставляется шанс принять участие в работе элитного подразделения по борьбе с наркотиками, возглавляемого агентом Мэттом Грейвером. Самый загадочный участник команды - местный консультант, человек без имени, привычек, и, кажется, без прошлого. Его истинное лицо откроется только в ходе рискованной операции, во время которой Кейт будет вынуждена поступиться собственными принципами, чтобы остаться в живых.
    HDVideo : Yes
    AppleStoreCatalogID : 1040631578
    Vendor : Apple:vendor_id:2015-817324
    ContentRating : mpaa|R|400|
    Video #1
    ID : 1
    Format : AVC
    Format/Info : Advanced Video Codec
    Format profile : High@L3.1
    Format settings, CABAC : No
    Format settings, ReFrames : 3 frames
    Codec ID : avc1
    Codec ID/Info : Advanced Video Coding
    Duration : 2h 1mn
    Source duration : 2h 1mn
    Bit rate : 3 500 Kbps
    Width : 1 280 pixels
    Height : 536 pixels
    Display aspect ratio : 2.40:1
    Frame rate mode : Variable
    Frame rate : 23.976 (24000/1001) fps
    Minimum frame rate : 23.810 fps
    Maximum frame rate : 24.246 fps
    Color space : YUV
    Chroma subsampling : 4:2:0
    Bit depth : 8 bits
    Scan type : Progressive
    Bits/(Pixel*Frame) : 0.213
    Stream size : 2.96 GiB (72%)
    Source stream size : 2.96 GiB (72%)
    Title : Main Program
    Writing library : x264 core 142 r2479 dd79a61
    Encoding settings : cabac=0 / ref=3 / deblock=1:-3:-3 / analyse=0x3:0x113 / me=umh / subme=9 / psy=1 / psy_rd=1.00:0.15 / mixed_ref=1 / me_range=32 / chroma_me=1 / trellis=0 / 8x8dct=1 / cqm=0 / deadzone=21,11 / fast_pskip=0 / chroma_qp_offset=-2 / threads=36 / lookahead_threads=3 / sliced_threads=0 / nr=0 / decimate=0 / interlaced=0 / bluray_compat=0 / constrained_intra=0 / bframes=3 / b_pyramid=0 / b_adapt=2 / b_bias=0 / direct=1 / weightb=0 / open_gop=0 / weightp=0 / keyint=240 / keyint_min=24 / scenecut=40 / intra_refresh=0 / rc_lookahead=40 / rc=2pass / mbtree=1 / bitrate=3500 / ratetol=1.0 / qcomp=0.65 / qpmin=0 / qpmax=69 / qpstep=4 / cplxblur=20.0 / qblur=0.5 / vbv_maxrate=9500 / vbv_bufsize=9500 / nal_hrd=none / filler=0 / ip_ratio=1.40 / aq=1:1.10
    Language : English
    Encoded date : UTC 2016-03-20 14:30:55
    Tagged date : UTC 2016-03-20 14:31:01
    Color range : Limited
    Color primaries : BT.709
    Transfer characteristics : BT.709
    Matrix coefficients : BT.709
    Menus : 10,11
    Video #2
    ID : 11
    Format : JPEG
    Codec ID : jpeg
    Duration : 2h 1mn
    Bit rate mode : Variable
    Bit rate : 489 bps
    Width : 640 pixels
    Height : 268 pixels
    Display aspect ratio : 2.40:1
    Frame rate mode : Variable
    Frame rate : 0.002 fps
    Minimum frame rate : 0.001 fps
    Maximum frame rate : 0.003 fps
    Color space : YUV
    Chroma subsampling : 4:2:0
    Bit depth : 8 bits
    Compression mode : Lossy
    Bits/(Pixel*Frame) : 1.425
    Stream size : 478 KiB (0%)
    Title : Chapter Images
    Language : English
    Default : No
    Encoded date : UTC 2016-03-20 14:31:42
    Tagged date : UTC 2016-03-20 14:31:42
    Menu For : 1
    Audio #1
    ID : 2
    Format : AAC
    Format/Info : Advanced Audio Codec
    Format profile : LC
    Codec ID : 40
    Duration : 2h 1mn
    Bit rate mode : Variable
    Bit rate : 157 Kbps
    Maximum bit rate : 238 Kbps
    Channel(s) : 2 channels
    Channel positions : Front: L R
    Sampling rate : 48.0 KHz
    Frame rate : 46.875 fps (1024 spf)
    Compression mode : Lossy
    Stream size : 136 MiB (3%)
    Title : Russian Stereo
    Language : Russian
    Default : Yes
    Alternate group : 1
    Encoded date : UTC 2016-03-20 14:30:55
    Tagged date : UTC 2016-03-20 14:31:38
    Fallback From : 4
    Subtitles : 6,8
    Audio #2
    ID : 3
    Format : AAC
    Format/Info : Advanced Audio Codec
    Format profile : LC
    Codec ID : 40
    Duration : 2h 1mn
    Bit rate mode : Variable
    Bit rate : 156 Kbps
    Maximum bit rate : 266 Kbps
    Channel(s) : 2 channels
    Channel positions : Front: L R
    Sampling rate : 48.0 KHz
    Frame rate : 46.875 fps (1024 spf)
    Compression mode : Lossy
    Stream size : 135 MiB (3%)
    Title : English Stereo
    Language : English
    Default : No
    Alternate group : 1
    Encoded date : UTC 2016-03-20 14:30:55
    Tagged date : UTC 2016-03-20 14:31:38
    Fallback From : 5
    Subtitles : 7,9
    Audio #3
    ID : 4
    Format : AC-3
    Format/Info : Audio Coding 3
    Mode extension : CM (complete main)
    Format settings, Endianness : Big
    Codec ID : ac-3
    Duration : 2h 1mn
    Bit rate mode : Constant
    Bit rate : 384 Kbps
    Channel(s) : 6 channels
    Channel positions : Front: L C R, Side: L R, LFE
    Sampling rate : 48.0 KHz
    Frame rate : 31.250 fps (1536 spf)
    Bit depth : 16 bits
    Compression mode : Lossy
    Stream size : 333 MiB (8%)
    Title : Russian DD 5.1
    Language : Russian
    Default : Inherited From: 2
    Alternate group : 1
    Encoded date : UTC 2016-03-20 14:30:55
    Tagged date : UTC 2016-03-20 14:31:38
    Fallback To : 2
    Subtitles : 6,8
    Audio #4
    ID : 5
    Format : AC-3
    Format/Info : Audio Coding 3
    Mode extension : CM (complete main)
    Format settings, Endianness : Big
    Codec ID : ac-3
    Duration : 2h 1mn
    Bit rate mode : Constant
    Bit rate : 640 Kbps
    Channel(s) : 6 channels
    Channel positions : Front: L C R, Side: L R, LFE
    Sampling rate : 48.0 KHz
    Frame rate : 31.250 fps (1536 spf)
    Bit depth : 16 bits
    Compression mode : Lossy
    Stream size : 555 MiB (13%)
    Title : English DD 5.1
    Language : English
    Default : No
    Alternate group : 1
    Encoded date : UTC 2016-03-20 14:30:55
    Tagged date : UTC 2016-03-20 14:31:38
    Fallback To : 3
    Subtitles : 7,9
    Text #1
    ID : 6
    Format : Timed Text
    Muxing mode : sbtl
    Codec ID : tx3g
    Duration : 1h 55mn
    Bit rate mode : Variable
    Bit rate : 6 bps
    Stream size : 5.45 KiB (0%)
    Title : Russian forced iTunes
    Language : Russian
    Default : Yes
    Forced : Yes
    Alternate group : 2
    Encoded date : UTC 2016-03-20 14:30:55
    Tagged date : UTC 2016-03-20 14:31:34
    Subtitles For : 2,4
    Full Alternative : 8
    Text #2
    ID : 7
    Format : Timed Text
    Muxing mode : sbtl
    Codec ID : tx3g
    Duration : 1h 46mn
    Bit rate mode : Variable
    Bit rate : 4 bps
    Stream size : 3.34 KiB (0%)
    Title : English forced
    Language : English
    Default : No
    Forced : Yes
    Alternate group : 2
    Encoded date : UTC 2016-03-20 14:30:55
    Tagged date : UTC 2016-03-20 14:31:33
    Subtitles For : 3,5
    Full Alternative : 9
    Text #3
    ID : 8
    Format : Timed Text
    Muxing mode : sbtl
    Codec ID : tx3g
    Duration : 1h 55mn
    Bit rate mode : Variable
    Bit rate : 86 bps
    Stream size : 72.9 KiB (0%)
    Title : Russian SDH Voronin
    Language : Russian
    Default : No
    Forced : No
    Alternate group : 2
    Encoded date : UTC 2016-03-20 14:30:55
    Tagged date : UTC 2016-03-20 14:31:36
    Subtitles For : 2,4
    Forced Alternative : 6
    Text #4
    ID : 9
    Format : Timed Text
    Muxing mode : sbtl
    Codec ID : tx3g
    Duration : 1h 52mn
    Bit rate mode : Variable
    Bit rate : 51 bps
    Stream size : 42.5 KiB (0%)
    Title : English full
    Language : English
    Default : No
    Forced : No
    Alternate group : 2
    Encoded date : UTC 2016-03-20 14:30:55
    Tagged date : UTC 2016-03-20 14:31:35
    Subtitles For : 3,5
    Forced Alternative : 7
    Menu #1
    00:00:00.000 : Chapter 1
    00:07:14.434 : Chapter 2
    00:12:55.191 : Chapter 3
    00:20:04.453 : Chapter 4
    00:25:24.898 : Chapter 5
    00:32:11.680 : Chapter 6
    00:39:24.904 : Chapter 7
    00:46:15.398 : Chapter 8
    00:53:24.660 : Chapter 9
    01:01:40.405 : Chapter 10
    01:10:49.203 : Chapter 11
    01:18:02.970 : Chapter 12
    01:30:59.454 : Chapter 13
    01:36:57.854 : Chapter 14
    01:47:42.122 : Chapter 15
    01:54:12.888 : Chapter 16
    Menu #2
    ID : 10
    Codec ID : text
    Duration : 2h 1mn
    Language : English
    Encoded date : UTC 2016-03-20 14:31:38
    Tagged date : UTC 2016-03-20 14:31:38
    Menu For : 1
    00:00:00.000 : Chapter 1
    00:07:14.434 : Chapter 2
    00:12:55.191 : Chapter 3
    00:20:04.453 : Chapter 4
    00:25:24.898 : Chapter 5
    00:32:11.680 : Chapter 6
    00:39:24.904 : Chapter 7
    00:46:15.398 : Chapter 8
    00:53:24.660 : Chapter 9
    01:01:40.405 : Chapter 10
    01:10:49.203 : Chapter 11
    01:18:02.970 : Chapter 12
    01:30:59.454 : Chapter 13
    01:36:57.854 : Chapter 14
    01:47:42.122 : Chapter 15
    01:54:12.888 : Chapter 16
    Bit rate mode : VBR

    x264 лог

    x264 [info]: frame I:1299  Avg QP:11.50  size:109335
    x264 [info]: frame P:57118 Avg QP:13.73  size: 36827
    x264 [info]: frame B:116136 Avg QP:15.25  size:  8038
    x264 [info]: consecutive B-frames:  2.4% 16.9% 29.7% 51.1%
    x264 [info]: mb I  I16..4: 13.5% 57.6% 29.0%
    x264 [info]: mb P  I16..4:  2.2%  5.1%  1.8%  P16..4: 40.0% 29.6% 13.8%  0.0%  0.0%    skip: 7.5%
    x264 [info]: mb B  I16..4:  0.3%  0.6%  0.2%  B16..8: 41.5% 13.9%  2.3%  direct: 3.5%  skip:37.9%  L0:43.3% L1:49.1% BI: 7.5%
    x264 [info]: 8x8 transform intra:56.2% inter:39.5%
    x264 [info]: coded y,uvDC,uvAC intra: 74.9% 77.3% 66.7% inter: 24.3% 19.8% 14.0%
    x264 [info]: i16 v,h,dc,p: 70% 10%  7% 14%
    x264 [info]: i8 v,h,dc,ddl,ddr,vr,hd,vl,hu: 12%  9% 14% 10% 12% 12% 12% 10% 10%
    x264 [info]: i4 v,h,dc,ddl,ddr,vr,hd,vl,hu: 12% 12%  6% 11% 15% 13% 13% 10%  9%
    x264 [info]: i8c dc,h,v,p: 59% 17% 16%  8%
    x264 [info]: ref P L0: 67.7% 19.0% 13.4%
    x264 [info]: ref B L0: 74.5% 25.5%
    x264 [info]: kb/s:3493.29

    Скриншоты

    -

    Релиз подготовлен для просмотра на Apple TV, iPad, iPhone, iPod Touch.
    Для просмотра данного релиза на компьютере с ОС Windows рекомендуется использовать VLC media player
    Скачать .torrent

    Скачать торрент-файл бесплатно и на максимальной скорости!

    Как скачивать? · Что такое торрент? · Рейтинг и ограничения

    !ВНИМАНИЕ!
    Сайт не распространяет и не хранит электронные версии произведений, а занимается лишь лишь предоставлением доступа к создаваемому пользователями каталогу ссылок на торрент-файлы, которые содержат только списки хеш-сумм, убедительная просьба с жалобами обращаться напрямую к пользователю. Файлы для обмена на трекере предоставлены пользователями сайта, и администрация не несёт ответственности за их содержание. Просьба не заливать файлы, защищенные авторскими правами, а также файлы нелегального содержания!


    _________________
    [Профиль] [ЛС]
    Показать сообщения:    
    Ответить на тему

    Текущее время: Сегодня, в 16:01

    Часовой пояс: GMT + 2



    Вы не можете начинать темы
    Вы не можете отвечать на сообщения
    Вы не можете редактировать свои сообщения
    Вы не можете удалять свои сообщения
    Вы не можете голосовать в опросах
    Вы не можете прикреплять файлы к сообщениям
    Вы не можете скачивать файлы