BitTorrentTracker PerecTracker.org
BitTorrentTracker PerecTracker.org
    
Регистрация  ·  Вход
 
 · 
Забыли пароль?

  • Пьер Броссолетт, или Пассажиры Луны / Pierre Brossolette ou les passagers de la lune (Колин Серро / Coline Serreau) [2015, Франция, историческая драма, экранизация, DVB] Original (Fre) + Sub (Rus, Eng, Fre, Deu)

    Ответить на тему
     
    Автор Сообщение

    Light

    Создавать темы 20-Мар-2016 20:49

           

    [Цитировать]

    Пьер Броссолетт, или Пассажиры Луны
    Pierre Brossolette ou les passagers de la lune-Страна: Франция
    Жанр: историческая драма, экранизация
    Год выпуска: 2015
    Продолжительность: 01:31:21
    Перевод: Субтитры (перевод М.Кузиной, Éclair Media)
    Cубтитры: русские, английские, французские, немецкие, нидерландские, румынские
    Оригинальная аудиодорожка: французский
    Режиссер: Колин Серро / Coline SerreauВ ролях: Жюльен Баумгартнер / Julien Baumgartner (Pierre Brossolette), Леа Дрюкер / Léa Drucker (Gilberte), Шарль Пети / Charles Petit (Passy), Франсуа Феролето / François Feroleto (Forest Yeo-Thomas), Эрик Наггар / Éric Naggar (Préfet Bollaert), Виктор Килишини / Victor Quilichini (Claude), Бернар Алан / Bernard Alane (Général de Gaulle), Фредерик Созе / Frédéric Sauzay (Colonel Rémy), Жанна Атье / Jeanne Hatier (Anne), Джо Шеридан / Joe Sheridan (Churchill), Кентен Байо / Quentin Baillot (Jean Moulin), Йоханнес Оливер Хамм / Johannes Oliver Hamm (Gestapiste - Hermann)
    Описание: Адаптация книги Эрика Русселя / Éric Roussel "Пьер Броссолетт / Pierre Brossolette" (2011). Автор сценария Дидье Декуан / Didier Decoin. Композитор Брюно Куле / Bruno Coulais.
    Биография Пьера Броссолетта, талантливого студента, журналиста-мечтателя, активного политика и ярого защитника прав человека. Во время Второй мировой войны в интеллектуале проснулся боец, активный участвовавший в движении Сопротивления. Арестованный немцами в начале 1944 года, он покончил жизнь самоубийством в возрасте 40 лет. После нескольких дней беспрерывных пыток Пьер Броссолетт выбросился с пятого этажа тюрьмы в Ренне, боясь не выдержать новых страданий и заговорить.
    Доп. информация: Hot Bird (13.0°E) TV5MONDE Europe DVB-S

    Качество видео: DVB
    Формат видео: TS
    Видео: MPEG Video 2, 720x576@1024x576 (16:9), 25 fps, ~3285 kbps avg, 0.317 bit/pixel
    Аудио: MPEG Audio 2, 2 ch, 48 kHz, 192 kbps - французский
    Формат субтитров: PGS

    MediaInfo

    GeneralID : 1 (0x1)Complete name : [apreder]Pierre_Brossolette_ou_les_passagers_de_la_lune(2015)DVB.tsFormat : MPEG-TSFile size : 2.34 GiBDuration : 1h 31mnOverall bit rate mode : VariableOverall bit rate : 3 659 KbpsMaximum Overall bit rate : 35.5 Mbps
    VideoID : 4113 (0x1011)Menu ID : 1 (0x1)Format : MPEG VideoFormat version : Version 2Format profile : Main@MainFormat settings, BVOP : YesFormat settings, Matrix : CustomFormat settings, GOP : M=4, N=12Format settings, picture structure : FrameCodec ID : 2Duration : 1h 31mnBit rate mode : VariableBit rate : 3 285 KbpsWidth : 720 pixelsHeight : 576 pixelsDisplay aspect ratio : 16:9Frame rate : 25.000 fpsStandard : PALColor space : YUVChroma subsampling : 4:2:0Bit depth : 8 bitsScan type : InterlacedScan order : Top Field FirstCompression mode : LossyBits/(Pixel*Frame) : 0.317Time code of first frame : 00:00:00:00Time code source : Group of pictures headerGOP, Open/Closed : OpenGOP, Open/Closed of first frame : ClosedStream size : 2.10 GiB (90%)
    AudioID : 4352 (0x1100)Menu ID : 1 (0x1)Format : MPEG AudioFormat version : Version 1Format profile : Layer 2Mode : Joint stereoMode extension : Intensity Stereo + MS StereoCodec ID : 4Duration : 1h 31mnBit rate mode : ConstantBit rate : 192 KbpsChannel(s) : 2 channelsSampling rate : 48.0 KHzCompression mode : LossyStream size : 125 MiB (5%)Language : French
    Text #1ID : 4608 (0x1200)Menu ID : 1 (0x1)Format : PGSCodec ID : 144Duration : 1h 31mnDelay relative to video : 4s 960msLanguage : Russian
    Text #2ID : 4609 (0x1201)Menu ID : 1 (0x1)Format : PGSCodec ID : 144Duration : 1h 31mnDelay relative to video : 4s 960msLanguage : English
    Text #3ID : 4610 (0x1202)Menu ID : 1 (0x1)Format : PGSCodec ID : 144Duration : 1h 31mnDelay relative to video : 4s 880msLanguage : French
    Text #4ID : 4611 (0x1203)Menu ID : 1 (0x1)Format : PGSCodec ID : 144Duration : 1h 31mnDelay relative to video : 4s 960msLanguage : German
    Text #5ID : 4612 (0x1204)Menu ID : 1 (0x1)Format : PGSCodec ID : 144Duration : 1h 31mnDelay relative to video : 5s 280msLanguage : Dutch
    Text #6ID : 4613 (0x1205)Menu ID : 1 (0x1)Format : PGSCodec ID : 144Delay relative to video : 5s 120msLanguage : Romanian

    Скриншот c названием фильма

    Скриншоты

    Резервные скриншоты


    -[2'975]
    Скачать .torrent

    Скачать торрент-файл бесплатно и на максимальной скорости!

    Как скачивать? · Что такое торрент? · Рейтинг и ограничения

    !ВНИМАНИЕ!
    Сайт не распространяет и не хранит электронные версии произведений, а занимается лишь лишь предоставлением доступа к создаваемому пользователями каталогу ссылок на торрент-файлы, которые содержат только списки хеш-сумм, убедительная просьба с жалобами обращаться напрямую к пользователю. Файлы для обмена на трекере предоставлены пользователями сайта, и администрация не несёт ответственности за их содержание. Просьба не заливать файлы, защищенные авторскими правами, а также файлы нелегального содержания!


    _________________
    [Профиль] [ЛС]
    Показать сообщения:    
    Ответить на тему

    Текущее время: Сегодня, в 13:51

    Часовой пояс: GMT + 2



    Вы не можете начинать темы
    Вы не можете отвечать на сообщения
    Вы не можете редактировать свои сообщения
    Вы не можете удалять свои сообщения
    Вы не можете голосовать в опросах
    Вы не можете прикреплять файлы к сообщениям
    Вы не можете скачивать файлы