BitTorrentTracker PerecTracker.org
BitTorrentTracker PerecTracker.org
    
Регистрация  ·  Вход
 
 · 
Забыли пароль?

  • Мир Юрского периода / Jurassic World (Колин Треворроу / Colin Trevorrow) [2015, США, Китай, фантастика, приключения, боевик, BDRip 1080p] Dub + Sub Rus, Eng + Original Eng

    Ответить на тему
     
    Автор Сообщение

    Light

    Создавать темы 20-Мар-2016 16:37

           

    [Цитировать]

    Мир Юрского периода / Jurassic World
    Страна: США, Китай
    Жанр: фантастика, приключения, боевик
    Год выпуска: 2015
    Продолжительность: 02:04:21
    Перевод: Профессиональный (дублированный)
    Cубтитры: Russian, Ukrainian, English, English-SDH, Bulgarian, Czech, Finnish, French, Polish, Spanish, Swedish
    Оригинальная аудиодорожка: английский-Режиссер: Колин Треворроу / Colin Trevorrow-В ролях: Крис Пратт, Брайс Даллас Ховард, Ник Дж. Робинсон, Тай Симпкинс, Винсент Д’Онофрио, Ирфан Кхан, Омар Си, Б.Д. Вонг, Джейк Джонсон, Джуди Грир-Описание: Тысячи людей спешат увидеть Мир Юрского периода, но безопасное на первый взгляд развлечение может обернуться угрозой для их жизней.-Релиз от: -Rip by TayTO-Качество видео: BDRip | Sample
    Формат видео: MKV
    Видео: 1920x960 at 23.976 fps, x264@L4.1, crf, ~20900 kbps avg
    Аудио 1: Russian: 48 kHz, DTS, 3/2 (L,C,R,l,r) + LFE ch, ~768.00 kbps avg |Дубляж, BluRay EUR|
    Аудио 2: English: 48 kHz, DTS, 3/2 (L,C,R,l,r) + LFE ch, ~1510.00 kbps avg-Дополнительно
    Цитата:
    Цитата:

    Сохранены оригинальные главы.
    TayTO encode from US Blu-ray has better PQ
    FillMargins and BalanceBorders were used to fix dirty lines on the Universal intro.
    Applied F3kdb Conditional Filter for some scenes with Banding & Blocking. Used Zones x43.

    MediaInfo

    Format                      : Matroska
    Format version              : Version 4 / Version 2
    File size                   : 20.5 GiB
    Duration                    : 2h 4mn
    Overall bit rate            : 23.6 Mbps
    Movie name                  : Release for HDCLUB
    Encoded date                : UTC 2015-11-27 09:25:37
    Writing application         : mkvmerge v5.9.0 ('On The Loose') built on Dec 23 2012 14:24:43
    Writing library             : libebml v1.3.0 + libmatroska v1.4.0
    Cover                       : Yes
    Attachments                 : Cover.png
    Video
    ID                          : 1
    Format                      : AVC
    Format/Info                 : Advanced Video Codec
    Format profile              : High@L4.1
    Format settings, CABAC      : Yes
    Format settings, ReFrames   : 4 frames
    Codec ID                    : V_MPEG4/ISO/AVC
    Duration                    : 2h 4mn
    Bit rate                    : 20.8 Mbps
    Width                       : 1 920 pixels
    Height                      : 960 pixels
    Display aspect ratio        : 2.000
    Frame rate mode             : Constant
    Frame rate                  : 23.976 (24000/1001) fps
    Color space                 : YUV
    Chroma subsampling          : 4:2:0
    Bit depth                   : 8 bits
    Scan type                   : Progressive
    Bits/(Pixel*Frame)          : 0.472
    Stream size                 : 18.1 GiB (88%)
    Writing library             : x264 core 142 r2431+42 c69a006 tMod [8-bit@all X86_64]
    Encoding settings           : cabac=1 / ref=4 / deblock=1:-3:-3 / analyse=0x3:0x133 / me=tesa / subme=11 / psy=1 / fade_compensate=0.00 / psy_rd=1.05:0.00 / mixed_ref=1 / me_range=32 / chroma_me=1 / trellis=2 / 8x8dct=1 / cqm=0 / deadzone=21,11 / fast_pskip=0 / chroma_qp_offset=-2 / threads=12 / lookahead_threads=2 / sliced_threads=0 / nr=0 / decimate=0 / interlaced=0 / bluray_compat=0 / constrained_intra=0 / fgo=0 / bframes=8 / b_pyramid=2 / b_adapt=2 / b_bias=0 / direct=3 / weightb=1 / open_gop=0 / weightp=2 / keyint=250 / keyint_min=23 / scenecut=40 / intra_refresh=0 / rc_lookahead=60 / rc=crf / mbtree=0 / crf=19.2000 / qcomp=0.70 / qpmin=0:0:0 / qpmax=69:69:69 / qpstep=4 / vbv_maxrate=62500 / vbv_bufsize=78125 / crf_max=0.0 / nal_hrd=none / filler=0 / ip_ratio=1.20 / pb_ratio=1.10 / aq=1:0.75 / aq-sensitivity=10.00 / aq-factor=1.00:1.00:1.00 / aq2=0 / aq3=0 / zones=77,1320,crf=17.7/7060,7112,crf=18.2/9062,9710,crf=19.4/12400,12991,crf=19.4/18544,19089,crf=19.4/20123,20585,crf=19.4/20978,21038,crf=19.4/22004,23160,crf=19.4/36466,36799,crf=19.4/54157,56590,crf=17.7/63411,63426,crf=17.7/86835,86887,crf=18.2/86998,87087,crf=18.2/98701,100472,crf=17.7/117550,117595,crf=18.2/130700,131670,crf=17.7/131671,131719,crf=15/131720,131866,crf=17.7/131867,131954,crf=15/131955,133114,crf=17.7/133115,133141,crf=15/133142,133823,crf=17.7/133824,133871,crf=15/133872,134376,crf=17.7/134377,134438,crf=15/134439,134653,crf=17.7/134654,134785,crf=15/134786,134944,crf=17.7/134945,135068,crf=15/135069,136140,crf=17.7/136141,136296,crf=15/136297,138564,crf=17.7/138565,138779,crf=15/138780,142686,crf=15/145192,145587,crf=17.7/145588,145669,crf=15/145860,145983,crf=17.7/145984,149936,crf=18.2/149937,150118,crf=17.7/150119,154077,crf=17.5/154078,154428,crf=15/154429,162227,crf=17.7/166264,178897,crf=25
    Language                    : English
    Default                     : Yes
    Forced                      : No
    Color range                 : Limited
    Matrix coefficients         : BT.709
    Audio #1
    ID                          : 2
    Format                      : DTS
    Format/Info                 : Digital Theater Systems
    Mode                        : 16
    Format settings, Endianness : Big
    Codec ID                    : A_DTS
    Duration                    : 2h 4mn
    Bit rate mode               : Constant
    Bit rate                    : 768 Kbps
    Channel(s)                  : 6 channels
    Channel positions           : Front: L C R, Side: L R, LFE
    Sampling rate               : 48.0 KHz
    Frame rate                  : 93.750 fps (512 spf)
    Bit depth                   : 24 bits
    Compression mode            : Lossy
    Stream size                 : 684 MiB (3%)
    Title                       : Blu-Ray CEE
    Language                    : Russian
    Default                     : Yes
    Forced                      : No
    Audio #2
    ID                          : 3
    Format                      : DTS
    Format/Info                 : Digital Theater Systems
    Mode                        : 16
    Format settings, Endianness : Big
    Codec ID                    : A_DTS
    Duration                    : 2h 4mn
    Bit rate mode               : Constant
    Bit rate                    : 1 510 Kbps
    Channel(s)                  : 6 channels
    Channel positions           : Front: L C R, Side: L R, LFE
    Sampling rate               : 48.0 KHz
    Frame rate                  : 93.750 fps (512 spf)
    Bit depth                   : 24 bits
    Compression mode            : Lossy
    Stream size                 : 1.31 GiB (6%)
    Language                    : English
    Default                     : No
    Forced                      : No
    Text #1
    ID                          : 4
    Format                      : UTF-8
    Codec ID                    : S_TEXT/UTF8
    Codec ID/Info               : UTF-8 Plain Text
    Title                       : Forced
    Language                    : Russian
    Default                     : Yes
    Forced                      : No
    Text #2
    ID                          : 5
    Format                      : UTF-8
    Codec ID                    : S_TEXT/UTF8
    Codec ID/Info               : UTF-8 Plain Text
    Title                       : Full
    Language                    : Russian
    Default                     : No
    Forced                      : No
    Text #3
    ID                          : 6
    Format                      : UTF-8
    Codec ID                    : S_TEXT/UTF8
    Codec ID/Info               : UTF-8 Plain Text
    Title                       : Forced
    Language                    : Ukrainian
    Default                     : No
    Forced                      : No
    Text #4
    ID                          : 7
    Format                      : UTF-8
    Codec ID                    : S_TEXT/UTF8
    Codec ID/Info               : UTF-8 Plain Text
    Title                       : Full
    Language                    : Ukrainian
    Default                     : No
    Forced                      : No
    Text #5
    ID                          : 8
    Format                      : UTF-8
    Codec ID                    : S_TEXT/UTF8
    Codec ID/Info               : UTF-8 Plain Text
    Language                    : English
    Default                     : No
    Forced                      : No
    Text #6
    ID                          : 9
    Format                      : UTF-8
    Codec ID                    : S_TEXT/UTF8
    Codec ID/Info               : UTF-8 Plain Text
    Title                       : SDH
    Language                    : English
    Default                     : No
    Forced                      : No
    Text #7
    ID                          : 10
    Format                      : UTF-8
    Codec ID                    : S_TEXT/UTF8
    Codec ID/Info               : UTF-8 Plain Text
    Language                    : Czech
    Default                     : No
    Forced                      : No
    Text #8
    ID                          : 11
    Format                      : UTF-8
    Codec ID                    : S_TEXT/UTF8
    Codec ID/Info               : UTF-8 Plain Text
    Language                    : Finnish
    Default                     : No
    Forced                      : No
    Text #9
    ID                          : 12
    Format                      : UTF-8
    Codec ID                    : S_TEXT/UTF8
    Codec ID/Info               : UTF-8 Plain Text
    Language                    : French
    Default                     : No
    Forced                      : No
    Text #10
    ID                          : 13
    Format                      : UTF-8
    Codec ID                    : S_TEXT/UTF8
    Codec ID/Info               : UTF-8 Plain Text
    Language                    : Polish
    Default                     : No
    Forced                      : No
    Text #11
    ID                          : 14
    Format                      : UTF-8
    Codec ID                    : S_TEXT/UTF8
    Codec ID/Info               : UTF-8 Plain Text
    Language                    : Spanish
    Default                     : No
    Forced                      : No
    Text #12
    ID                          : 15
    Format                      : UTF-8
    Codec ID                    : S_TEXT/UTF8
    Codec ID/Info               : UTF-8 Plain Text
    Language                    : Swedish
    Default                     : No
    Forced                      : No
    Text #13
    ID                          : 16
    Format                      : UTF-8
    Codec ID                    : S_TEXT/UTF8
    Codec ID/Info               : UTF-8 Plain Text
    Language                    : Bulgarian
    Default                     : No
    Forced                      : No
    Menu
    00:00:00.000                : en:00:00:00.000
    00:06:59.169                : en:00:06:59.169
    00:11:01.828                : en:00:11:01.828
    00:18:28.441                : en:00:18:28.441
    00:25:34.867                : en:00:25:34.867
    00:31:20.837                : en:00:31:20.837
    00:39:23.861                : en:00:39:23.861
    00:44:07.854                : en:00:44:07.854
    00:48:57.226                : en:00:48:57.226
    00:55:51.056                : en:00:55:51.056
    01:01:21.344                : en:01:01:21.344
    01:09:50.561                : en:01:09:50.561
    01:15:25.479                : en:01:15:25.479
    01:23:51.860                : en:01:23:51.860
    01:30:14.701                : en:01:30:14.701
    01:36:45.425                : en:01:36:45.425
    01:41:15.653                : en:01:41:15.653
    01:47:35.282                : en:01:47:35.282
    01:53:06.029                : en:01:53:06.029
    01:55:37.556                : en:01:55:37.556

    Скриншоты

    Скачать .torrent

    Скачать торрент-файл бесплатно и на максимальной скорости!

    Как скачивать? · Что такое торрент? · Рейтинг и ограничения

    !ВНИМАНИЕ!
    Сайт не распространяет и не хранит электронные версии произведений, а занимается лишь лишь предоставлением доступа к создаваемому пользователями каталогу ссылок на торрент-файлы, которые содержат только списки хеш-сумм, убедительная просьба с жалобами обращаться напрямую к пользователю. Файлы для обмена на трекере предоставлены пользователями сайта, и администрация не несёт ответственности за их содержание. Просьба не заливать файлы, защищенные авторскими правами, а также файлы нелегального содержания!


    _________________
    [Профиль] [ЛС]
    Показать сообщения:    
    Ответить на тему

    Текущее время: Сегодня, в 17:29

    Часовой пояс: GMT + 2



    Вы не можете начинать темы
    Вы не можете отвечать на сообщения
    Вы не можете редактировать свои сообщения
    Вы не можете удалять свои сообщения
    Вы не можете голосовать в опросах
    Вы не можете прикреплять файлы к сообщениям
    Вы не можете скачивать файлы