Register  ·  Log in
Forgot password?

  • Нечисть (Пугала) / Straszydla / The Scares (Роман Хущо / Roman Huszczo) [1983, Польша, Мультфильм, детский, полнометражный, TVRip] VO (Cmert)

    Reply to topic
    Author Message


    Post 20-Mar-2016 00:49



    Нечисть (Пугала) / Straszydla / The Scares
    Страна: Польша
    Жанр: Мультфильм, детский, полнометражный
    Год выпуска: 1983
    Продолжительность: 59:58
    Перевод: Одноголосый закадровый Cmert
    Cубтитры: нет
    Оригинальная аудиодорожка: нет
    Режиссер: Роман Хущо / Roman Huszczo
    В ролях: Марек Кондрат, Роман Вильгельми, Казимеж Брусикевич, Александр Гавроньски, Михал Байор, София Ямры-Косек, Здзислав Тобяш, Мирослава Моравска.
    Описание: Журналист Эгон Рысь разъезжает по стране в поисах темы для "сенсационного" репортажа и встречает пугало, спешащее на слёт нечисти. Нечисть собирается в старом замке и решает открыть кооператив под управлением Вельзевула.
    Доп. информация: Озвучил от сюда:
    Качество видео: TVRip
    Формат видео: AVI
    Видео: 688x496 (1.39:1), 25 fps, XviD MPEG-4 ~1505 kbps avg, 0.18 bit/pixel
    Аудио: 44.100 kHz, MPEG Layer 3, 2 ch, ~128.00 kbps avg


    Format : AVI
    Format/Info : Audio Video Interleave
    File size : 705 MiB
    Duration : 59mn 58s
    Overall bit rate : 1 643 Kbps
    Writing application : VirtualDubMod (build 2540/release)
    Writing library : VirtualDubMod build 2540/release
    ID : 0
    Format : MPEG-4 Visual
    Format profile : Advanced Simple@L5
    Format settings, BVOP : 1
    Format settings, QPel : No
    Format settings, GMC : No warppoints
    Format settings, Matrix : Default (H.263)
    Muxing mode : Packed bitstream
    Codec ID : XVID
    Codec ID/Hint : XviD
    Duration : 59mn 58s
    Bit rate : 1 506 Kbps
    Width : 688 pixels
    Height : 496 pixels
    Display aspect ratio : 1.387
    Frame rate : 25.000 fps
    Color space : YUV
    Chroma subsampling : 4:2:0
    Bit depth : 8 bits
    Scan type : Progressive
    Compression mode : Lossy
    Bits/(Pixel*Frame) : 0.176
    Stream size : 646 MiB (92%)
    Writing library : XviD 1.1.2 (UTC 2006-11-01)
    ID : 1
    Format : MPEG Audio
    Format version : Version 1
    Format profile : Layer 3
    Mode : Joint stereo
    Mode extension : MS Stereo
    Codec ID : 55
    Codec ID/Hint : MP3
    Duration : 59mn 58s
    Bit rate mode : Constant
    Bit rate : 128 Kbps
    Channel(s) : 2 channels
    Sampling rate : 44.1 KHz
    Compression mode : Lossy
    Stream size : 54.9 MiB (8%)
    Alignment : Split accross interleaves
    Interleave, duration : 40 ms (1.00 video frame)
    Interleave, preload duratio : 500 ms

    Скриншот c названием фильма


    Download .torrent

    Download free and at maximum speed!

    How to Download? · What is a torrent? · Ratings and Limitations

    The site does not extend and does not store electronic(digital) versions of products, and only gives access to a reference catalogue created by users on torrent-files which contain only lists of the hash-sums, the earnest entreaty, with complaints(abuse) to access directly to the user. Files for an exchange on tracker are given by users of a site, and the administration does not bear the responsibility for their maintenance. The request to not fill in the files protected by copyrights, and also files of the illegal maintenance!

    [Profile] [PM]
    Display posts from previous:    
    Reply to topic

    The time now is: Today 20:56

    All times are GMT + 3 Hours

    You cannot post new topics in this forum
    You cannot reply to topics in this forum
    You cannot edit your posts in this forum
    You cannot delete your posts in this forum
    You cannot vote in polls in this forum
    You cannot attach files in this forum
    You cannot download files in this forum