BitTorrentTracker PerecTracker.org
BitTorrentTracker PerecTracker.org
    
Регистрация  ·  Вход
 
 · 
Забыли пароль?

  • От колыбели до могилы / Cradle 2 the Grave (Анджей Бартковяк) [2003, США, боевик, триллер, драма, криминал, BDRip HD (720p), SD (480p)] MVO, DVO, AVO, Original + SUB (rus, eng)

    Ответить на тему
     
    Автор Сообщение

    rechyn

    Создавать темы 19-Мар-2016 23:49

           

    [Цитировать]

    От колыбели до могилы / Cradle 2 the Grave
    "Mortal enemies make dangerous friends"
    7.028 / 10
    -Год выпуска: 2003
    Страна: США
    Жанр: боевик, триллер, драма, криминал
    Продолжительность: 101 мин.
    Перевод: Многоголосый закадровый перевод, двухголосый закадровый перевод и одноголосый закадровый авторский перевод
    Оригинальная аудиодорожка: Есть
    Cубтитры: Русские полные и английские полные SDH
    Режиссёр: Анджей Бартковяк
    Сценарий: Джон О’Брайэн, Чаннинг Гибсон
    Продюсер: Джоэл Силвер, Рэй Коуплэнд, Сьюзан Дауни
    Оператор: Дарин Окада
    Композитор: Дэймон Блэкман, Джон Фриззелл
    Художник: Дэвид Ф. Классен, Ричард Ф. Мейс, Ха Нгуйен
    Монтаж: Дерек Бречин
    В ролях: Джет Ли, DMX, Энтони Андерсон, Келли Ху, Том Арнольд, Марк Дакаскос, Гэбриэл Юнион, Майкл Джейс, Драг-Он, Пейдж Херд
    Бюджет: $25 000 000
    Сборы в США: $34 712 347
    Сборы в мире: + $21 777 211 = $56 489 558
    Мировая премьера: 28 февраля 2003
    Релиз на DVD: 16 февраля 2012, CP-Digital
    Описание: Профессиональный грабитель и секретный агент объединяют свои усилия в борьбе против банды свирепых гангстеров под руководством жестокого мафиози... В центре сюжета - бесценные сокровища - черные алмазы из Тайваня. Сначала их похищает банда чернокожего вора Тони Фейта. Но драгоценности приносят ему лишь неприятности: хозяин камешков, торговец оружием Линг, похищает дочь Фейта и требует вернуть бриллианты.
    Только возвращать уже нечего: камни снова украдены, на этот раз бандой местного мафиози Джамба Чемберса. Чтобы вернуть дочь и уцелеть самому, Фейт вынужден объединиться с агентом тайваньской разведки Су, который тоже идет по следу бриллиантов. Дело в том, что черные алмазы - совсем не ювелирные драгоценности...-Качество исходника: BD-Remux 1080p (HDClub)
    Качество: BDRip
    Тип: 480p 720p
    Контейнер: m4v
    Видео: 640x354 анаморф 852x354 at 23.976 fps, MPEG-4 AVC, ~1700 kbps avg
    Видео: 1280x532 at 23.976 fps, MPEG-4 AVC, ~5500 kbps avg
    Аудио#1: Russian: 48 kHz, ААС, 2/0 (L,R), ~128.00 / 160.00 kbps avg |Многоголосый закадровый, R5|
    Аудио#2: Russian: 48 kHz, ААС, 2/0 (L,R), ~128.00 / 160.00 kbps avg |Двухголосый закадровый, LDV|
    Аудио#3: Russian: 48 kHz, ААС, 2/0 (L,R), ~128.00 / 160.00 kbps avg |Двухголосый закадровый, DDV|
    Аудио#4: Russian: 48 kHz, ААС, 2/0 (L,R), ~128.00 / 160.00 kbps avg |Одноголосый закадровый, А. Гаврилов|
    Аудио#5: Russian: 48 kHz, ААС, 2/0 (L,R), ~128.00 / 160.00 kbps avg |Одноголосый закадровый, Ю. Живов|
    Аудио#6: Ukrainian: 48 kHz, ААС, 2/0 (L,R), ~128.00 / 160.00 kbps avg |Многоголосый закадровый, ICTV|
    Аудио#7: English: 48 kHz, ААС, 2/0 (L,R), ~128.00 / 160.00 kbps avg
    Аудио#8: Russian: 48 kHz, AC3, 3/2 (L,C,R,l,r) + LFE ch, ~384.00 kbps avg |Многоголосый закадровый, R5|
    Аудио#9: Russian: 48 kHz, AC3, 3/2 (L,C,R,l,r) + LFE ch, ~448.00 kbps avg |Двухголосый закадровый, LDV|
    Аудио#10: Russian: 48 kHz, AC3, 3/2 (L,C,R,l,r) + LFE ch, ~448.00 kbps avg |Одноголосый закадровый, А. Гаврилов|
    Аудио#11: Russian: 48 kHz, AC3, 3/2 (L,C,R,l,r) + LFE ch, ~640.00 kbps avg |Одноголосый закадровый, Ю. Живов|
    Аудио#12: English: 48 kHz, AC3, 3/2 (L,C,R,l,r) + LFE ch, ~640.00 kbps avg
    Субтитры №1: Russian: |Полные|
    Субтитры №2: English: |Полные, SDH|-

    Знаете ли Вы, что...

    • Съемки картины начались 11-го марта 2002 года, а закончились в начале лета того же года. Фильм снимался в Лос-Анджелесе и Торонто.
    • Первоначально продюсер картины Джоэл Силвер на главную роль в фильме планировал Вина Дизеля, но тот был занят съемками «Трех Иксов», поэтому от его кандидатуры пришлось отказаться.
    • Рабочими названиями картины были «Untitled DMX Project» и «Untitled M Remake Project». Название «Cradle to the Grave» было заменено на более «крутое» «Cradle 2 the Grave».
    • В Германи фильм был назван «Born 2 Die» (Рождённый чтобы умереть).

    -

    iTunes Meta Tags for country us

    Name: Cradle 2 the Grave
    Artist: Andrzej Bartkowiak
    Genre: Action & Adventure
    Release Date: 2003-02-28T08:00:00Z
    Description: Профессиональный грабитель и секретный агент объединяют свои усилия в борьбе против банды свирепых гангстеров под руководством жестокого мафиози...
    Long Description: Профессиональный грабитель и секретный агент объединяют свои усилия в борьбе против банды свирепых гангстеров под руководством жестокого мафиози... В центре сюжета - бесценные сокровища - черные алмазы из Тайваня. Сначала их похищает банда чернокожего вора Тони Фейта. Но драгоценности приносят ему лишь неприятности: хозяин камешков, торговец оружием Линг, похищает дочь Фейта и требует вернуть бриллианты.
    Только возвращать уже нечего: камни снова украдены, на этот раз бандой местного мафиози Джамба Чемберса. Чтобы вернуть дочь и уцелеть самому, Фейт вынужден объединиться с агентом тайваньской разведки Су, который тоже идет по следу бриллиантов. Дело в том, что черные алмазы - совсем не ювелирные драгоценности...
    Rating: R
    Rating Annotation: Rated R for violence, language and some sexual content.
    Studio: Warner Bros.
    Cast: Джет Ли, DMX, Энтони Андерсон, Келли Ху, Том Арнольд, Марк Дакаскос, Гэбриэл Юнион, Майкл Джейс, Драг-Он, Пейдж Херд
    Director: Анджей Бартковяк
    Producers: Джоэл Силвер, Рэй Коуплэнд, Сьюзан Дауни
    Screenwriters: Джон О’Брайэн, Чаннинг Гибсон
    Copyright: © 2003 Warner Bros. Entertainment Inc. All rights reserved.
    contentID: 288914122
    XID: Apple:vendor_id:2003-3664
    Sort Name: Cradle 2 the Grave

    iTunes Meta Tags for country ru

    Name: От колыбели до могилы
    Artist: Andrzej Bartkowiak
    Genre: Action & Adventure
    Release Date: 2003-02-28T08:00:00Z
    Description: Профессиональный грабитель и секретный агент объединяют свои усилия в борьбе против банды свирепых гангстеров под руководством жестокого мафиози...
    Long Description: Профессиональный грабитель и секретный агент объединяют свои усилия в борьбе против банды свирепых гангстеров под руководством жестокого мафиози... В центре сюжета - бесценные сокровища - черные алмазы из Тайваня. Сначала их похищает банда чернокожего вора Тони Фейта. Но драгоценности приносят ему лишь неприятности: хозяин камешков, торговец оружием Линг, похищает дочь Фейта и требует вернуть бриллианты.
    Только возвращать уже нечего: камни снова украдены, на этот раз бандой местного мафиози Джамба Чемберса. Чтобы вернуть дочь и уцелеть самому, Фейт вынужден объединиться с агентом тайваньской разведки Су, который тоже идет по следу бриллиантов. Дело в том, что черные алмазы - совсем не ювелирные драгоценности...
    Rating: 16+
    Studio: Warner Bros.
    Cast: Джет Ли, DMX, Энтони Андерсон, Келли Ху, Том Арнольд, Марк Дакаскос, Гэбриэл Юнион, Майкл Джейс, Драг-Он, Пейдж Херд
    Director: Анджей Бартковяк
    Producers: Джоэл Силвер, Рэй Коуплэнд, Сьюзан Дауни
    Screenwriters: Джон О’Брайэн, Чаннинг Гибсон
    Copyright: © 2003 Warner Bros. Entertainment Inc. Все права защищены.
    contentID: 514551964
    XID: Apple:vendor_id:2003-3664
    Sort Name: От колыбели до могилы

    MediaInfo 480p Release

    Общее
    Полное имя : Cradle 2 the Grave.m4v
    Формат : MPEG-4
    Идентификатор кодека : M4V  (M4V /M4A /mp42/isom)
    Размер файла : 1,84 Гбайт
    Продолжительность : 1 ч. 41 м.
    Режим общего битрейта : Переменный
    Общий поток : 2602 Кбит/сек
    Название фильма : Cradle 2 the Grave
    Исполнитель : Andrzej Bartkowiak
    Режиссёр : Анджей Бартковяк
    Исполнитель : Джет Ли / DMX / Энтони Андерсон / Келли Ху / Том Арнольд / Марк Дакаскос / Гэбриэл Юнион / Майкл Джейс / Драг-Он / Пейдж Херд
    Сценарист : Джон О’Брайэн / Чаннинг Гибсон
    Продюсер : Джоэл Силвер / Рэй Коуплэнд / Сьюзан Дауни
    Студия-производитель : Warner Bros.
    Жанр : Action & Adventure
    Тип содержимого : Short Film
    Описание : Профессиональный грабитель и секретный агент объединяют свои усилия в борьбе против банды свирепых гангстеров под руководством жестокого мафиози...
    Дата записи : UTC 2003-02-28 08:00:00
    Дата кодирования : UTC 2016-03-19 16:03:19
    Дата пометки : UTC 2016-03-19 16:34:26
    Авторское право : © 2003 Warner Bros. Entertainment Inc. All rights reserved.
    Обложка : Yes
    Оценка : None
    Title/Sort : Cradle 2 the Grave
    LongDescription : Профессиональный грабитель и секретный агент объединяют свои усилия в борьбе против банды свирепых гангстеров под руководством жестокого мафиози... В центре сюжета - бесценные сокровища - черные алмазы из Тайваня. Сначала их похищает банда чернокожего вора Тони Фейта. Но драгоценности приносят ему лишь неприятности: хозяин камешков, торговец оружием Линг, похищает дочь Фейта и требует вернуть бриллианты. / Только возвращать уже нечего: камни снова украдены, на этот раз бандой местного мафиози Джамба Чемберса. Чтобы вернуть дочь и уцелеть самому, Фейт вынужден объединиться с агентом тайваньской разведки Су, который тоже идет по следу бриллиантов. Дело в том, что черные алмазы - совсем не ювелирные драгоценности...
    AppleStoreCatalogID : 288914122
    Vendor : Apple:vendor_id:2003-3664
    ContentRating : mpaa|R|400|Rated R for violence, language and some sexual content.
    Видео #1
    Идентификатор : 1
    Формат : AVC
    Формат/Информация : Advanced Video Codec
    Профиль формата : Baseline@L3
    Параметр CABAC формата : Нет
    Параметр ReFrames формата : 2 кадра
    Идентификатор кодека : avc1
    Идентификатор кодека/Информация : Advanced Video Coding
    Продолжительность : 1 ч. 41 м.
    Битрейт : 1700 Кбит/сек
    Ширина : 640 пикселей
    Высота : 354 пикселя
    Соотношение сторон : 2,40:1
    Соотношение сторон в оригинале : 2,40:1
    Режим частоты кадров : Переменный
    Частота кадров : 23,976 (24000/1001) кадра/сек
    Минимальная частота кадров : 23,974 кадра/сек
    Максимальная частота кадров : 23,981 кадра/сек
    Цветовое пространство : YUV
    Субдискретизация насыщенности : 4:2:0
    Битовая глубина : 8 бит
    Тип развёртки : Прогрессивная
    Бит/(Пиксели*Кадры) : 0.313
    Размер потока : 1,20 Гбайт (65%)
    Заголовок : Main Program
    Библиотека кодирования : x264 core 130 r2273 b3065e6
    Настройки программы : cabac=0 / ref=2 / deblock=1:0:0 / analyse=0x1:0x111 / me=umh / subme=6 / psy=1 / psy_rd=1.00:0.00 / mixed_ref=1 / me_range=16 / chroma_me=1 / trellis=0 / 8x8dct=0 / cqm=0 / deadzone=21,11 / fast_pskip=1 / chroma_qp_offset=-2 / threads=18 / lookahead_threads=2 / sliced_threads=0 / nr=0 / decimate=1 / interlaced=0 / bluray_compat=0 / constrained_intra=0 / bframes=0 / weightp=0 / keyint=240 / keyint_min=24 / scenecut=40 / intra_refresh=0 / rc_lookahead=40 / rc=2pass / mbtree=1 / bitrate=1700 / ratetol=1.0 / qcomp=0.60 / qpmin=0 / qpmax=69 / qpstep=4 / cplxblur=20.0 / qblur=0.5 / vbv_maxrate=5000 / vbv_bufsize=5000 / nal_hrd=none / ip_ratio=1.40 / aq=1:1.00
    Язык : English
    Дата кодирования : UTC 2016-03-19 16:03:19
    Дата пометки : UTC 2016-03-19 16:04:00
    Цветовой диапазон : Limited
    Основные цвета : BT.709
    Характеристики трансфера : BT.709
    Коэффициенты матрицы : BT.709
    Menus : 11,12
    Видео #2
    Идентификатор : 12
    Формат : JPEG
    Идентификатор кодека : jpeg
    Продолжительность : 1 ч. 41 м.
    Вид битрейта : Переменный
    Битрейт : 1335 бит/сек
    Ширина : 640 пикселей
    Высота : 265 пикселей
    Соотношение сторон : 2,40:1
    Режим частоты кадров : Переменный
    Частота кадров : 0,005 кадр/сек
    Минимальная частота кадров : 0,003 кадр/сек
    Максимальная частота кадров : 0,016 кадр/сек
    Цветовое пространство : YUV
    Субдискретизация насыщенности : 4:2:0
    Битовая глубина : 8 бит
    Метод сжатия : С потерями
    Бит/(Пиксели*Кадры) : 1.574
    Размер потока : 913 Кбайт (0%)
    Заголовок : Chapter Images
    Язык : English
    Default : Нет
    Дата кодирования : UTC 2016-03-19 16:28:52
    Дата пометки : UTC 2016-03-19 16:28:52
    Menu For : 1
    Аудио #1
    Идентификатор : 2
    Формат : AAC
    Формат/Информация : Advanced Audio Codec
    Профиль формата : LC
    Идентификатор кодека : 40
    Продолжительность : 1 ч. 41 м.
    Вид битрейта : Переменный
    Битрейт : 132 Кбит/сек
    Максимальный битрейт : 212 Кбит/сек
    Каналы : 2 канала
    Расположение каналов : Front: L R
    Частота : 48,0 КГц
    Частота кадров : 46,875 кадров/сек (1024 spf)
    Метод сжатия : С потерями
    Размер потока : 95,8 Мбайт (5%)
    Заголовок : Russian MVO R5 Stereo
    Язык : Russian
    Default : Да
    Alternate group : 1
    Дата кодирования : UTC 2016-03-19 16:03:19
    Дата пометки : UTC 2016-03-19 16:04:15
    Menus : 11
    Аудио #2
    Идентификатор : 3
    Формат : AAC
    Формат/Информация : Advanced Audio Codec
    Профиль формата : LC
    Идентификатор кодека : 40
    Продолжительность : 1 ч. 41 м.
    Вид битрейта : Переменный
    Битрейт : 132 Кбит/сек
    Максимальный битрейт : 221 Кбит/сек
    Каналы : 2 канала
    Расположение каналов : Front: L R
    Частота : 48,0 КГц
    Частота кадров : 46,875 кадров/сек (1024 spf)
    Метод сжатия : С потерями
    Размер потока : 95,6 Мбайт (5%)
    Заголовок : Russian DVO LDV Stereo
    Язык : Russian
    Default : Нет
    Alternate group : 1
    Дата кодирования : UTC 2016-03-19 16:03:19
    Дата пометки : UTC 2016-03-19 16:04:15
    Аудио #3
    Идентификатор : 4
    Формат : AAC
    Формат/Информация : Advanced Audio Codec
    Профиль формата : LC
    Идентификатор кодека : 40
    Продолжительность : 1 ч. 41 м.
    Вид битрейта : Переменный
    Битрейт : 132 Кбит/сек
    Максимальный битрейт : 174 Кбит/сек
    Каналы : 2 канала
    Расположение каналов : Front: L R
    Частота : 48,0 КГц
    Частота кадров : 46,875 кадров/сек (1024 spf)
    Метод сжатия : С потерями
    Размер потока : 95,1 Мбайт (5%)
    Заголовок : Russian DVO DDV Stereo
    Язык : Russian
    Default : Нет
    Alternate group : 1
    Дата кодирования : UTC 2016-03-19 16:03:19
    Дата пометки : UTC 2016-03-19 16:04:15
    Аудио #4
    Идентификатор : 5
    Формат : AAC
    Формат/Информация : Advanced Audio Codec
    Профиль формата : LC
    Идентификатор кодека : 40
    Продолжительность : 1 ч. 41 м.
    Вид битрейта : Переменный
    Битрейт : 132 Кбит/сек
    Максимальный битрейт : 214 Кбит/сек
    Каналы : 2 канала
    Расположение каналов : Front: L R
    Частота : 48,0 КГц
    Частота кадров : 46,875 кадров/сек (1024 spf)
    Метод сжатия : С потерями
    Размер потока : 95,7 Мбайт (5%)
    Заголовок : Russian AVO A.Gavrilov Stereo
    Язык : Russian
    Default : Нет
    Alternate group : 1
    Дата кодирования : UTC 2016-03-19 16:03:19
    Дата пометки : UTC 2016-03-19 16:04:15
    Аудио #5
    Идентификатор : 6
    Формат : AAC
    Формат/Информация : Advanced Audio Codec
    Профиль формата : LC
    Идентификатор кодека : 40
    Продолжительность : 1 ч. 41 м.
    Вид битрейта : Переменный
    Битрейт : 132 Кбит/сек
    Максимальный битрейт : 225 Кбит/сек
    Каналы : 2 канала
    Расположение каналов : Front: L R
    Частота : 48,0 КГц
    Частота кадров : 46,875 кадров/сек (1024 spf)
    Метод сжатия : С потерями
    Размер потока : 96,1 Мбайт (5%)
    Заголовок : Russian AVO U.Zhivov Stereo
    Язык : Russian
    Default : Нет
    Alternate group : 1
    Дата кодирования : UTC 2016-03-19 16:03:19
    Дата пометки : UTC 2016-03-19 16:04:15
    Аудио #6
    Идентификатор : 7
    Формат : AAC
    Формат/Информация : Advanced Audio Codec
    Профиль формата : LC
    Идентификатор кодека : 40
    Продолжительность : 1 ч. 41 м.
    Вид битрейта : Переменный
    Битрейт : 92,3 Кбит/сек
    Максимальный битрейт : 128 Кбит/сек
    Каналы : 2 канала
    Расположение каналов : Front: L R
    Частота : 48,0 КГц
    Частота кадров : 46,875 кадров/сек (1024 spf)
    Метод сжатия : С потерями
    Размер потока : 66,8 Мбайт (4%)
    Заголовок : Ukrainian MO ICTV Stereo
    Язык : Ukrainian
    Default : Нет
    Alternate group : 1
    Дата кодирования : UTC 2016-03-19 16:03:19
    Дата пометки : UTC 2016-03-19 16:04:14
    Аудио #7
    Идентификатор : 8
    Формат : AAC
    Формат/Информация : Advanced Audio Codec
    Профиль формата : LC
    Идентификатор кодека : 40
    Продолжительность : 1 ч. 41 м.
    Вид битрейта : Переменный
    Битрейт : 132 Кбит/сек
    Максимальный битрейт : 212 Кбит/сек
    Каналы : 2 канала
    Расположение каналов : Front: L R
    Частота : 48,0 КГц
    Частота кадров : 46,875 кадров/сек (1024 spf)
    Метод сжатия : С потерями
    Размер потока : 96,6 Мбайт (5%)
    Заголовок : English Stereo
    Язык : English
    Default : Нет
    Alternate group : 1
    Дата кодирования : UTC 2016-03-19 16:03:19
    Дата пометки : UTC 2016-03-19 16:04:15
    Текст #1
    Идентификатор : 9
    Формат : Timed Text
    Режим смешивания : sbtl
    Идентификатор кодека : tx3g
    Продолжительность : 1 ч. 40 м.
    Вид битрейта : Переменный
    Битрейт : 61 бит/сек
    Размер потока : 45,1 Кбайт (0%)
    Заголовок : Russian Subtitle
    Язык : Russian
    Default : Да
    Forced : Нет
    Alternate group : 2
    Дата кодирования : UTC 2016-03-19 16:27:53
    Дата пометки : UTC 2016-03-19 16:27:53
    Текст #2
    Идентификатор : 10
    Формат : Timed Text
    Режим смешивания : sbtl
    Идентификатор кодека : tx3g
    Продолжительность : 1 ч. 40 м.
    Вид битрейта : Переменный
    Битрейт : 56 бит/сек
    Размер потока : 41,2 Кбайт (0%)
    Заголовок : English SDH Subtitle
    Язык : English
    Default : Нет
    Forced : Нет
    Alternate group : 2
    Дата кодирования : UTC 2016-03-19 16:27:53
    Дата пометки : UTC 2016-03-19 16:27:53
    Меню #1
    00:00:00.000 : The Heist Is On
    00:04:01.073 : Dropping In
    00:06:40.650 : Tommy's Turn
    00:09:34.155 : In-Demand Gems
    00:13:09.329 : Rapid Transit
    00:18:28.106 : Diamond for a Princess
    00:23:02.881 : No Deal
    00:27:14.799 : Mixed Doubles
    00:31:29.929 : Stuck With Each Other
    00:35:45.643 : Daughter Worries
    00:39:03.424 : Chambers' Chambers (Break Somethin')
    00:43:35.529 : Into the Driver's Seat (So Whasup)
    00:46:15.939 : Leave it to Archie
    00:51:40.138 : Tommy the Bug Man
    00:54:34.312 : Sexy Distraction (N***a Please)
    00:56:20.293 : Crashing In
    00:59:40.285 : Calling #12
    01:03:28.763 : Free-Wheeling
    01:09:40.259 : Escaping and Resting
    01:12:07.448 : One Step Behind
    01:15:41.370 : Green Light
    01:18:40.631 : Break Out the Heat
    01:23:23.747 : Big Guns
    01:27:21.361 : Fighting Mad
    01:30:39.267 : Ring of Fire
    01:34:31.874 : Faith
    01:36:29.783 : End Credits
    01:37:32.345 : Sidekicks
    Меню #2
    Идентификатор : 11
    Идентификатор кодека : text
    Продолжительность : 1 ч. 41 м.
    Заголовок : Chapter Titles
    Язык : English
    Дата кодирования : UTC 2016-03-19 16:28:48
    Дата пометки : UTC 2016-03-19 16:28:48
    Menu For : 2,1
    00:00:00.000 : The Heist Is On
    00:04:01.073 : Dropping In
    00:06:40.650 : Tommy's Turn
    00:09:34.155 : In-Demand Gems
    00:13:09.329 : Rapid Transit
    00:18:28.106 : Diamond for a Princess
    00:23:02.881 : No Deal
    00:27:14.799 : Mixed Doubles
    00:31:29.929 : Stuck With Each Other
    00:35:45.643 : Daughter Worries
    00:39:03.424 : Chambers' Chambers (Break Somethin')
    00:43:35.529 : Into the Driver's Seat (So Whasup)
    00:46:15.939 : Leave it to Archie
    00:51:40.138 : Tommy the Bug Man
    00:54:34.312 : Sexy Distraction (N***a Please)
    00:56:20.293 : Crashing In
    00:59:40.285 : Calling #12
    01:03:28.763 : Free-Wheeling
    01:09:40.259 : Escaping and Resting
    01:12:07.448 : One Step Behind
    01:15:41.370 : Green Light
    01:18:40.631 : Break Out the Heat
    01:23:23.747 : Big Guns
    01:27:21.361 : Fighting Mad
    01:30:39.267 : Ring of Fire
    01:34:31.874 : Faith
    01:36:29.783 : End Credits
    01:37:32.345 : Sidekicks
    Вид битрейта : VBR

    MediaInfo 720p Release

    Общее
    Полное имя : Cradle 2 the Grave (HD).m4v
    Формат : MPEG-4
    Идентификатор кодека : M4V  (M4V /M4A /mp42/isom)
    Размер файла : 6,49 Гбайт
    Продолжительность : 1 ч. 41 м.
    Режим общего битрейта : Переменный
    Общий поток : 9179 Кбит/сек
    Название фильма : Cradle 2 the Grave
    Исполнитель : Andrzej Bartkowiak
    Режиссёр : Анджей Бартковяк
    Исполнитель : Джет Ли / DMX / Энтони Андерсон / Келли Ху / Том Арнольд / Марк Дакаскос / Гэбриэл Юнион / Майкл Джейс / Драг-Он / Пейдж Херд
    Сценарист : Джон О’Брайэн / Чаннинг Гибсон
    Продюсер : Джоэл Силвер / Рэй Коуплэнд / Сьюзан Дауни
    Студия-производитель : Warner Bros.
    Жанр : Action & Adventure
    Тип содержимого : Short Film
    Описание : Профессиональный грабитель и секретный агент объединяют свои усилия в борьбе против банды свирепых гангстеров под руководством жестокого мафиози...
    Дата записи : UTC 2003-02-28 08:00:00
    Дата кодирования : UTC 2016-03-19 15:50:17
    Дата пометки : UTC 2016-03-19 16:29:20
    Авторское право : © 2003 Warner Bros. Entertainment Inc. All rights reserved.
    Обложка : Yes
    Оценка : None
    Title/Sort : Cradle 2 the Grave
    LongDescription : Профессиональный грабитель и секретный агент объединяют свои усилия в борьбе против банды свирепых гангстеров под руководством жестокого мафиози... В центре сюжета - бесценные сокровища - черные алмазы из Тайваня. Сначала их похищает банда чернокожего вора Тони Фейта. Но драгоценности приносят ему лишь неприятности: хозяин камешков, торговец оружием Линг, похищает дочь Фейта и требует вернуть бриллианты. / Только возвращать уже нечего: камни снова украдены, на этот раз бандой местного мафиози Джамба Чемберса. Чтобы вернуть дочь и уцелеть самому, Фейт вынужден объединиться с агентом тайваньской разведки Су, который тоже идет по следу бриллиантов. Дело в том, что черные алмазы - совсем не ювелирные драгоценности...
    HDVideo : Yes
    AppleStoreCatalogID : 288914122
    Vendor : Apple:vendor_id:2003-3664
    ContentRating : mpaa|R|400|Rated R for violence, language and some sexual content.
    Видео #1
    Идентификатор : 1
    Формат : AVC
    Формат/Информация : Advanced Video Codec
    Профиль формата : High@L3.1
    Параметр CABAC формата : Нет
    Параметр ReFrames формата : 3 кадра
    Идентификатор кодека : avc1
    Идентификатор кодека/Информация : Advanced Video Coding
    Продолжительность : 1 ч. 41 м.
    Продолжительность оригинала : 1 ч. 41 м.
    Битрейт : 5500 Кбит/сек
    Ширина : 1280 пикселей
    Высота : 532 пикселя
    Соотношение сторон : 2,40:1
    Режим частоты кадров : Переменный
    Частота кадров : 23,976 (24000/1001) кадра/сек
    Минимальная частота кадров : 23,974 кадра/сек
    Максимальная частота кадров : 23,981 кадра/сек
    Цветовое пространство : YUV
    Субдискретизация насыщенности : 4:2:0
    Битовая глубина : 8 бит
    Тип развёртки : Прогрессивная
    Бит/(Пиксели*Кадры) : 0.337
    Размер потока : 3,88 Гбайт (60%)
    Размер потока оригинала : 3,88 Гбайт (60%)
    Заголовок : Main Program
    Библиотека кодирования : x264 core 130 r2273 b3065e6
    Настройки программы : cabac=0 / ref=3 / deblock=1:-3:-2 / analyse=0x3:0x113 / me=umh / subme=9 / psy=1 / psy_rd=1.00:0.25 / mixed_ref=1 / me_range=32 / chroma_me=1 / trellis=0 / 8x8dct=1 / cqm=0 / deadzone=21,11 / fast_pskip=0 / chroma_qp_offset=-2 / threads=18 / lookahead_threads=1 / sliced_threads=0 / nr=0 / decimate=0 / interlaced=0 / bluray_compat=0 / constrained_intra=0 / bframes=3 / b_pyramid=0 / b_adapt=2 / b_bias=0 / direct=1 / weightb=0 / open_gop=0 / weightp=0 / keyint=240 / keyint_min=24 / scenecut=40 / intra_refresh=0 / rc_lookahead=40 / rc=2pass / mbtree=1 / bitrate=5500 / ratetol=1.0 / qcomp=0.60 / qpmin=0 / qpmax=69 / qpstep=4 / cplxblur=20.0 / qblur=0.5 / vbv_maxrate=9500 / vbv_bufsize=9500 / nal_hrd=none / ip_ratio=1.40 / aq=1:0.80
    Язык : English
    Дата кодирования : UTC 2016-03-19 15:50:17
    Дата пометки : UTC 2016-03-19 15:51:01
    Цветовой диапазон : Limited
    Основные цвета : BT.709
    Характеристики трансфера : BT.709
    Коэффициенты матрицы : BT.709
    Menus : 16,17
    Видео #2
    Идентификатор : 17
    Формат : JPEG
    Идентификатор кодека : jpeg
    Продолжительность : 1 ч. 41 м.
    Вид битрейта : Переменный
    Битрейт : 1404 бит/сек
    Ширина : 640 пикселей
    Высота : 266 пикселей
    Соотношение сторон : 2,40:1
    Режим частоты кадров : Переменный
    Частота кадров : 0,005 кадр/сек
    Минимальная частота кадров : 0,003 кадр/сек
    Максимальная частота кадров : 0,016 кадр/сек
    Цветовое пространство : YUV
    Субдискретизация насыщенности : 4:2:0
    Битовая глубина : 8 бит
    Метод сжатия : С потерями
    Бит/(Пиксели*Кадры) : 1.649
    Размер потока : 960 Кбайт (0%)
    Заголовок : Chapter Images
    Язык : English
    Default : Нет
    Дата кодирования : UTC 2016-03-19 16:29:08
    Дата пометки : UTC 2016-03-19 16:29:08
    Menu For : 1
    Аудио #1
    Идентификатор : 2
    Формат : AAC
    Формат/Информация : Advanced Audio Codec
    Профиль формата : LC
    Идентификатор кодека : 40
    Продолжительность : 1 ч. 41 м.
    Вид битрейта : Переменный
    Битрейт : 165 Кбит/сек
    Максимальный битрейт : 275 Кбит/сек
    Каналы : 2 канала
    Расположение каналов : Front: L R
    Частота : 48,0 КГц
    Частота кадров : 46,875 кадров/сек (1024 spf)
    Метод сжатия : С потерями
    Размер потока : 120 Мбайт (2%)
    Заголовок : Russian MVO R5 Stereo
    Язык : Russian
    Default : Да
    Alternate group : 1
    Дата кодирования : UTC 2016-03-19 15:50:17
    Дата пометки : UTC 2016-03-19 15:51:33
    Fallback From : 9
    Menus : 16
    Аудио #2
    Идентификатор : 3
    Формат : AAC
    Формат/Информация : Advanced Audio Codec
    Профиль формата : LC
    Идентификатор кодека : 40
    Продолжительность : 1 ч. 41 м.
    Вид битрейта : Переменный
    Битрейт : 165 Кбит/сек
    Максимальный битрейт : 268 Кбит/сек
    Каналы : 2 канала
    Расположение каналов : Front: L R
    Частота : 48,0 КГц
    Частота кадров : 46,875 кадров/сек (1024 spf)
    Метод сжатия : С потерями
    Размер потока : 119 Мбайт (2%)
    Заголовок : Russian DVO LDV Stereo
    Язык : Russian
    Default : Нет
    Alternate group : 1
    Дата кодирования : UTC 2016-03-19 15:50:17
    Дата пометки : UTC 2016-03-19 15:51:33
    Fallback From : 10
    Аудио #3
    Идентификатор : 4
    Формат : AAC
    Формат/Информация : Advanced Audio Codec
    Профиль формата : LC
    Идентификатор кодека : 40
    Продолжительность : 1 ч. 41 м.
    Вид битрейта : Переменный
    Битрейт : 164 Кбит/сек
    Максимальный битрейт : 225 Кбит/сек
    Каналы : 2 канала
    Расположение каналов : Front: L R
    Частота : 48,0 КГц
    Частота кадров : 46,875 кадров/сек (1024 spf)
    Метод сжатия : С потерями
    Размер потока : 119 Мбайт (2%)
    Заголовок : Russian DVO DDV Stereo
    Язык : Russian
    Default : Нет
    Alternate group : 1
    Дата кодирования : UTC 2016-03-19 15:50:17
    Дата пометки : UTC 2016-03-19 15:51:33
    Аудио #4
    Идентификатор : 5
    Формат : AAC
    Формат/Информация : Advanced Audio Codec
    Профиль формата : LC
    Идентификатор кодека : 40
    Продолжительность : 1 ч. 41 м.
    Вид битрейта : Переменный
    Битрейт : 165 Кбит/сек
    Максимальный битрейт : 260 Кбит/сек
    Каналы : 2 канала
    Расположение каналов : Front: L R
    Частота : 48,0 КГц
    Частота кадров : 46,875 кадров/сек (1024 spf)
    Метод сжатия : С потерями
    Размер потока : 120 Мбайт (2%)
    Заголовок : Russian AVO A.Gavrilov Stereo
    Язык : Russian
    Default : Нет
    Alternate group : 1
    Дата кодирования : UTC 2016-03-19 15:50:17
    Дата пометки : UTC 2016-03-19 15:51:33
    Fallback From : 11
    Аудио #5
    Идентификатор : 6
    Формат : AAC
    Формат/Информация : Advanced Audio Codec
    Профиль формата : LC
    Идентификатор кодека : 40
    Продолжительность : 1 ч. 41 м.
    Вид битрейта : Переменный
    Битрейт : 166 Кбит/сек
    Максимальный битрейт : 279 Кбит/сек
    Каналы : 2 канала
    Расположение каналов : Front: L R
    Частота : 48,0 КГц
    Частота кадров : 46,875 кадров/сек (1024 spf)
    Метод сжатия : С потерями
    Размер потока : 120 Мбайт (2%)
    Заголовок : Russian AVO U.Zhivov Stereo
    Язык : Russian
    Default : Нет
    Alternate group : 1
    Дата кодирования : UTC 2016-03-19 15:50:17
    Дата пометки : UTC 2016-03-19 15:51:33
    Fallback From : 12
    Аудио #6
    Идентификатор : 7
    Формат : AAC
    Формат/Информация : Advanced Audio Codec
    Профиль формата : LC
    Идентификатор кодека : 40
    Продолжительность : 1 ч. 41 м.
    Вид битрейта : Переменный
    Битрейт : 111 Кбит/сек
    Максимальный битрейт : 151 Кбит/сек
    Каналы : 2 канала
    Расположение каналов : Front: L R
    Частота : 48,0 КГц
    Частота кадров : 46,875 кадров/сек (1024 spf)
    Метод сжатия : С потерями
    Размер потока : 80,2 Мбайт (1%)
    Заголовок : Ukrainian MO ICTV Stereo
    Язык : Ukrainian
    Default : Нет
    Alternate group : 1
    Дата кодирования : UTC 2016-03-19 15:50:17
    Дата пометки : UTC 2016-03-19 15:51:32
    Аудио #7
    Идентификатор : 8
    Формат : AAC
    Формат/Информация : Advanced Audio Codec
    Профиль формата : LC
    Идентификатор кодека : 40
    Продолжительность : 1 ч. 41 м.
    Вид битрейта : Переменный
    Битрейт : 167 Кбит/сек
    Максимальный битрейт : 256 Кбит/сек
    Каналы : 2 канала
    Расположение каналов : Front: L R
    Частота : 48,0 КГц
    Частота кадров : 46,875 кадров/сек (1024 spf)
    Метод сжатия : С потерями
    Размер потока : 121 Мбайт (2%)
    Заголовок : English Stereo
    Язык : English
    Default : Нет
    Alternate group : 1
    Дата кодирования : UTC 2016-03-19 15:50:17
    Дата пометки : UTC 2016-03-19 15:51:33
    Fallback From : 13
    Аудио #8
    Идентификатор : 9
    Формат : AC-3
    Формат/Информация : Audio Coding 3
    Расширение режима : CM (complete main)
    Параметр Endianness формата : Big
    Идентификатор кодека : ac-3
    Продолжительность : 1 ч. 41 м.
    Вид битрейта : Постоянный
    Битрейт : 384 Кбит/сек
    Каналы : 6 каналов
    Расположение каналов : Front: L C R, Side: L R, LFE
    Частота : 48,0 КГц
    Частота кадров : 31,250 кадров/сек (1536 spf)
    Битовая глубина : 16 бит
    Метод сжатия : С потерями
    Размер потока : 278 Мбайт (4%)
    Заголовок : Russian MVO R5 DD 5.1
    Язык : Russian
    Default : Inherited From: 2
    Alternate group : 1
    Дата кодирования : UTC 2016-03-19 15:50:17
    Дата пометки : UTC 2016-03-19 15:51:19
    Fallback To : 2
    Аудио #9
    Идентификатор : 10
    Формат : AC-3
    Формат/Информация : Audio Coding 3
    Расширение режима : CM (complete main)
    Параметр Endianness формата : Big
    Идентификатор кодека : ac-3
    Продолжительность : 1 ч. 41 м.
    Вид битрейта : Постоянный
    Битрейт : 448 Кбит/сек
    Каналы : 6 каналов
    Расположение каналов : Front: L C R, Side: L R, LFE
    Частота : 48,0 КГц
    Частота кадров : 31,250 кадров/сек (1536 spf)
    Битовая глубина : 16 бит
    Метод сжатия : С потерями
    Размер потока : 324 Мбайт (5%)
    Заголовок : Russian DVO LDV DD 5.1
    Язык : Russian
    Default : Нет
    Alternate group : 1
    Дата кодирования : UTC 2016-03-19 15:50:17
    Дата пометки : UTC 2016-03-19 15:51:19
    Fallback To : 3
    Аудио #10
    Идентификатор : 11
    Формат : AC-3
    Формат/Информация : Audio Coding 3
    Расширение режима : CM (complete main)
    Параметр Endianness формата : Big
    Идентификатор кодека : ac-3
    Продолжительность : 1 ч. 41 м.
    Вид битрейта : Постоянный
    Битрейт : 448 Кбит/сек
    Каналы : 6 каналов
    Расположение каналов : Front: L C R, Side: L R, LFE
    Частота : 48,0 КГц
    Частота кадров : 31,250 кадров/сек (1536 spf)
    Битовая глубина : 16 бит
    Метод сжатия : С потерями
    Размер потока : 324 Мбайт (5%)
    Заголовок : Russian AVO A.Gavrilov DD 5.1
    Язык : Russian
    Default : Нет
    Alternate group : 1
    Дата кодирования : UTC 2016-03-19 15:50:17
    Дата пометки : UTC 2016-03-19 15:51:19
    Fallback To : 5
    Аудио #11
    Идентификатор : 12
    Формат : AC-3
    Формат/Информация : Audio Coding 3
    Расширение режима : CM (complete main)
    Параметр Endianness формата : Big
    Идентификатор кодека : ac-3
    Продолжительность : 1 ч. 41 м.
    Вид битрейта : Постоянный
    Битрейт : 640 Кбит/сек
    Каналы : 6 каналов
    Расположение каналов : Front: L C R, Side: L R, LFE
    Частота : 48,0 КГц
    Частота кадров : 31,250 кадров/сек (1536 spf)
    Битовая глубина : 16 бит
    Метод сжатия : С потерями
    Размер потока : 463 Мбайт (7%)
    Заголовок : Russian AVO U.Zhivov DD 5.1
    Язык : Russian
    Default : Нет
    Alternate group : 1
    Дата кодирования : UTC 2016-03-19 15:50:17
    Дата пометки : UTC 2016-03-19 15:51:19
    Fallback To : 6
    Аудио #12
    Идентификатор : 13
    Формат : AC-3
    Формат/Информация : Audio Coding 3
    Расширение режима : CM (complete main)
    Параметр Endianness формата : Big
    Идентификатор кодека : ac-3
    Продолжительность : 1 ч. 41 м.
    Вид битрейта : Постоянный
    Битрейт : 640 Кбит/сек
    Каналы : 6 каналов
    Расположение каналов : Front: L C R, Side: L R, LFE
    Частота : 48,0 КГц
    Частота кадров : 31,250 кадров/сек (1536 spf)
    Битовая глубина : 16 бит
    Метод сжатия : С потерями
    Размер потока : 463 Мбайт (7%)
    Заголовок : English DD 5.1
    Язык : English
    Default : Нет
    Alternate group : 1
    Дата кодирования : UTC 2016-03-19 15:50:17
    Дата пометки : UTC 2016-03-19 15:51:19
    Fallback To : 8
    Текст #1
    Идентификатор : 14
    Формат : Timed Text
    Режим смешивания : sbtl
    Идентификатор кодека : tx3g
    Продолжительность : 1 ч. 40 м.
    Вид битрейта : Переменный
    Битрейт : 61 бит/сек
    Размер потока : 45,1 Кбайт (0%)
    Заголовок : Russian Subtitle
    Язык : Russian
    Default : Да
    Forced : Нет
    Alternate group : 2
    Дата кодирования : UTC 2016-03-19 16:28:03
    Дата пометки : UTC 2016-03-19 16:28:03
    Текст #2
    Идентификатор : 15
    Формат : Timed Text
    Режим смешивания : sbtl
    Идентификатор кодека : tx3g
    Продолжительность : 1 ч. 40 м.
    Вид битрейта : Переменный
    Битрейт : 56 бит/сек
    Размер потока : 41,2 Кбайт (0%)
    Заголовок : English SDH Subtitle
    Язык : English
    Default : Нет
    Forced : Нет
    Alternate group : 2
    Дата кодирования : UTC 2016-03-19 16:28:03
    Дата пометки : UTC 2016-03-19 16:28:03
    Меню #1
    00:00:00.000 : The Heist Is On
    00:04:01.073 : Dropping In
    00:06:40.650 : Tommy's Turn
    00:09:34.155 : In-Demand Gems
    00:13:09.329 : Rapid Transit
    00:18:28.106 : Diamond for a Princess
    00:23:02.881 : No Deal
    00:27:14.799 : Mixed Doubles
    00:31:29.929 : Stuck With Each Other
    00:35:45.643 : Daughter Worries
    00:39:03.424 : Chambers' Chambers (Break Somethin')
    00:43:35.529 : Into the Driver's Seat (So Whasup)
    00:46:15.939 : Leave it to Archie
    00:51:40.138 : Tommy the Bug Man
    00:54:34.312 : Sexy Distraction (N***a Please)
    00:56:20.293 : Crashing In
    00:59:40.285 : Calling #12
    01:03:28.763 : Free-Wheeling
    01:09:40.259 : Escaping and Resting
    01:12:07.448 : One Step Behind
    01:15:41.370 : Green Light
    01:18:40.631 : Break Out the Heat
    01:23:23.747 : Big Guns
    01:27:21.361 : Fighting Mad
    01:30:39.267 : Ring of Fire
    01:34:31.874 : Faith
    01:36:29.783 : End Credits
    01:37:32.345 : Sidekicks
    Меню #2
    Идентификатор : 16
    Идентификатор кодека : text
    Продолжительность : 1 ч. 41 м.
    Заголовок : Chapter Titles
    Язык : English
    Дата кодирования : UTC 2016-03-19 16:29:01
    Дата пометки : UTC 2016-03-19 16:29:01
    Menu For : 2,1
    00:00:00.000 : The Heist Is On
    00:04:01.073 : Dropping In
    00:06:40.650 : Tommy's Turn
    00:09:34.155 : In-Demand Gems
    00:13:09.329 : Rapid Transit
    00:18:28.106 : Diamond for a Princess
    00:23:02.881 : No Deal
    00:27:14.799 : Mixed Doubles
    00:31:29.929 : Stuck With Each Other
    00:35:45.643 : Daughter Worries
    00:39:03.424 : Chambers' Chambers (Break Somethin')
    00:43:35.529 : Into the Driver's Seat (So Whasup)
    00:46:15.939 : Leave it to Archie
    00:51:40.138 : Tommy the Bug Man
    00:54:34.312 : Sexy Distraction (N***a Please)
    00:56:20.293 : Crashing In
    00:59:40.285 : Calling #12
    01:03:28.763 : Free-Wheeling
    01:09:40.259 : Escaping and Resting
    01:12:07.448 : One Step Behind
    01:15:41.370 : Green Light
    01:18:40.631 : Break Out the Heat
    01:23:23.747 : Big Guns
    01:27:21.361 : Fighting Mad
    01:30:39.267 : Ring of Fire
    01:34:31.874 : Faith
    01:36:29.783 : End Credits
    01:37:32.345 : Sidekicks
    Вид битрейта : VBR

    x264 лог 480p Release

    HandBrakeCLI -i "/CRADLE_2_THE_GRAVE_2003_BD-REMUX_HDCLUB/BDMV/STREAM/00000.m2ts" -t 1 -o "Cradle.2.The.Grave.480p.eng.m4v" -f mp4 -I -O -w 640 -l 354 --crop 144:140:0:0 --custom-anamorphic --modulus 2 --pixel-aspect 852:640 -e x264 -b 1700 -2 -a none -x cabac=0:ref=2:me=umh:bframes=0:weightp=0:subq=6:8x8dct=0:trellis=0:vbv-maxrate=5000:vbv-bufsize=5000 --verbose=1
    x264 [info]: frame I:4907  Avg QP:18.02  size: 24762  PSNR Mean Y:45.48 U:48.37 V:51.15 Avg:46.42 Global:46.04
    x264 [info]: frame P:140695 Avg QP:19.91  size:  8310  PSNR Mean Y:43.42 U:46.33 V:48.69 Avg:44.33 Global:43.93
    x264 [info]: mb I  I16..4: 20.3%  0.0% 79.7%
    x264 [info]: mb P  I16..4:  1.6%  0.0%  6.1%  P16..4: 47.5% 24.4%  9.8%  0.0%  0.0%    skip:10.6%
    x264 [info]: coded y,uvDC,uvAC intra: 75.8% 87.0% 61.9% inter: 31.1% 33.7% 6.3%
    x264 [info]: i16 v,h,dc,p: 36% 16%  8% 40%
    x264 [info]: i4 v,h,dc,ddl,ddr,vr,hd,vl,hu: 33% 13% 15%  6%  7%  8%  6%  7%  5%
    x264 [info]: i8c dc,h,v,p: 47% 17% 27%  9%
    x264 [info]: ref P L0: 76.3% 23.7%
    x264 [info]: SSIM Mean Y:0.9783326 (16.642db)
    x264 [info]: PSNR Mean Y:43.493 U:46.401 V:48.770 Avg:44.403 Global:43.982 kb/s:1700.24

    x264 лог 720p Release

    HandBrakeCLI -i "/CRADLE_2_THE_GRAVE_2003_BD-REMUX_HDCLUB/BDMV/STREAM/00000.m2ts" -t 1 -o "Cradle.2.The.Grave.720p.eng.m4v" -f mp4 -4 -O -w 1280 -l 532 --crop 144:140:0:0 --modulus 4 -e x264 -b 5500 -2 -a none -x cabac=0:ref=3:me=umh:b-pyramid=none:b-adapt=2:weightb=0:trellis=0:weightp=0:vbv-maxrate=9500:vbv-bufsize=9500:subq=9:merange=32:deblock=-3,-2:qcomp=0.60:qpmin=0:qpmax=69:fast_pskip=0:aq-strength=0.8:no-dct-decimate=1:psy-rd=1.00,0.25 --verbose=1
    x264 [info]: frame I:2111  Avg QP:16.62  size:101537  PSNR Mean Y:46.79 U:49.68 V:52.43 Avg:47.75 Global:47.60
    x264 [info]: frame P:55905 Avg QP:19.28  size: 43758  PSNR Mean Y:44.10 U:47.34 V:50.37 Avg:45.10 Global:44.89
    x264 [info]: frame B:87586 Avg QP:20.77  size: 17240  PSNR Mean Y:43.04 U:46.52 V:50.18 Avg:44.08 Global:43.81
    x264 [info]: consecutive B-frames:  4.3% 33.5% 38.8% 23.3%
    x264 [info]: mb I  I16..4:  3.4% 64.9% 31.7%
    x264 [info]: mb P  I16..4:  1.9% 13.2%  5.9%  P16..4: 43.4% 24.5% 10.1%  0.0%  0.0%    skip: 1.0%
    x264 [info]: mb B  I16..4:  0.2%  2.6%  1.3%  B16..8: 48.1% 14.2%  2.6%  direct: 8.8%  skip:22.2%  L0:39.2% L1:49.5% BI:11.3%
    x264 [info]: 8x8 transform intra:63.0% inter:47.7%
    x264 [info]: coded y,uvDC,uvAC intra: 91.1% 87.0% 61.3% inter: 37.6% 41.6% 18.1%
    x264 [info]: i16 v,h,dc,p: 28% 20%  7% 45%
    x264 [info]: i8 v,h,dc,ddl,ddr,vr,hd,vl,hu:  9%  7%  4% 12% 17% 15% 15% 11% 11%
    x264 [info]: i4 v,h,dc,ddl,ddr,vr,hd,vl,hu: 15%  8%  3% 11% 16% 15% 13% 10%  9%
    x264 [info]: i8c dc,h,v,p: 47% 20% 20% 13%
    x264 [info]: ref P L0: 74.0% 16.2%  9.8%
    x264 [info]: ref B L0: 85.8% 14.2%
    x264 [info]: SSIM Mean Y:0.9712268 (15.410db)
    x264 [info]: PSNR Mean Y:43.503 U:46.881 V:50.284 Avg:44.528 Global:44.236 kb/s:5494.11

    Скриншоты 480p Release

    Скриншоты 720p Release

    Цитата:
    Цитата:

    • Дорожка №5 получена наложением чистого голоса на центральный канал английского DTS-HD;
    • За переводы LDV и Андрея Гаврилова благодарим Loki1982 и tatyanochka2011 соответственно. Обе дорожки подогнаны без перекодирования средствами eac3to;
    • За дорожку от DDV, на порядок лучшую распространённого в сети варианта, спасибо Diаblo;
    • Спасибо maks990 за работу над субтитрами.
    -

    Релиз подготовлен для просмотра на Apple TV, iPad, iPhone, iPod Touch.
    Для просмотра данного релиза на компьютере с ОС Windows рекомендуется использовать VLC media player
    Скачать .torrent

    Скачать торрент-файл бесплатно и на максимальной скорости!

    Как скачивать? · Что такое торрент? · Рейтинг и ограничения

    !ВНИМАНИЕ!
    Сайт не распространяет и не хранит электронные версии произведений, а занимается лишь лишь предоставлением доступа к создаваемому пользователями каталогу ссылок на торрент-файлы, которые содержат только списки хеш-сумм, убедительная просьба с жалобами обращаться напрямую к пользователю. Файлы для обмена на трекере предоставлены пользователями сайта, и администрация не несёт ответственности за их содержание. Просьба не заливать файлы, защищенные авторскими правами, а также файлы нелегального содержания!


    _________________
    [Профиль] [ЛС]
    Показать сообщения:    
    Ответить на тему

    Текущее время: Сегодня, в 03:03

    Часовой пояс: GMT + 2



    Вы не можете начинать темы
    Вы не можете отвечать на сообщения
    Вы не можете редактировать свои сообщения
    Вы не можете удалять свои сообщения
    Вы не можете голосовать в опросах
    Вы не можете прикреплять файлы к сообщениям
    Вы не можете скачивать файлы