BitTorrentTracker PerecTracker.org
BitTorrentTracker PerecTracker.org
    
Регистрация  ·  Вход
 
 · 
Забыли пароль?

  • Тайное общество Супилинна / Supilinna Salaselts (Маргус Пайу / Margus Paju) [2015, Эстония, Финляндия, фэнтези, боевик, детектив, приключения, семейный, BDRip] Dub

    Ответить на тему
     
    Автор Сообщение

    Light

    Создавать темы 19-Мар-2016 23:49

           

    [Цитировать]

    Тайное общество Супилинна / Supilinna Salaselts
    Страна: Эстония, Финляндия
    Жанр: фэнтези, боевик, детектив, приключения, семейный
    Год выпуска: 2015
    Продолжительность: 01:44:48
    Перевод: Профессиональный (дублированный)
    Cубтитры: нет
    Оригинальная аудиодорожка: нет
    Режиссер: Маргус Пайу / Margus Paju
    В ролях: Арго Адли, Отт Аардам, Арабелла Антон, Грегор Келдер, Айн Лутсепп, Лаури Небель
    Описание: В очередные летние каникулы четверо детей — Мари, Саду, Олав и Антон — решили организовать команду. Чтобы дети не болтались без дела по городу, дедушка Мари придумал для них интересную игру. Они должны разыскивать в определенных местах предметы, которые он указывал на карте. Но в эту игру вмешалось одно обстоятельство. Кто-то в городе стал распространять странное вещество, от которого взрослые своим поведением стали напоминать детей. Теперь эта четверка должна остановить злодея и найти противоядие, чтобы спасти своих родственников и знакомых.
    Сэмпл: http://multi-up.com/1093771
    Исходник: Supilinna Salaselts (2015) Blu-ray BALTiC 1080i AVC DD5.1 / HDCLUB
    Качество видео: BDRip
    Формат видео: AVI
    Видео: 688x288 (2.40:1), 25.000 fps, XviD 73 ~852 kbps avg, 0.172 bit/pixel
    Аудио: MP3, 128 kbps, 48 kHz, 2 ch

    MediaInfo

    General
    Complete name : F:\Video\Фильмы\Supilinna Salaselts.2015.BDRip.745Mb.avi
    Format : AVI
    Format/Info : Audio Video Interleave
    File size : 742 MiB
    Duration : 1h 44mn
    Overall bit rate : 990 Kbps
    Writing application : VirtualDubMod 1.5.10.3 | www.virtualdub-fr.org || (build 2550/release)
    Writing library : VirtualDubMod build 2550/release
    Video
    ID : 0
    Format : MPEG-4 Visual
    Format profile : Advanced Simple@L5
    Format settings, BVOP : 1
    Format settings, QPel : No
    Format settings, GMC : No warppoints
    Format settings, Matrix : Custom
    Codec ID : XVID
    Codec ID/Hint : XviD
    Duration : 1h 44mn
    Bit rate : 852 Kbps
    Width : 688 pixels
    Height : 288 pixels
    Display aspect ratio : 2.40:1
    Frame rate : 25.000 fps
    Color space : YUV
    Chroma subsampling : 4:2:0
    Bit depth : 8 bits
    Scan type : Progressive
    Compression mode : Lossy
    Bits/(Pixel*Frame) : 0.172
    Stream size : 639 MiB (86%)
    Writing library : XviD 73
    Audio
    ID : 1
    Format : MPEG Audio
    Format version : Version 1
    Format profile : Layer 3
    Codec ID : 55
    Codec ID/Hint : MP3
    Duration : 1h 44mn
    Bit rate mode : Constant
    Bit rate : 128 Kbps
    Channel(s) : 2 channels
    Sampling rate : 48.0 KHz
    Compression mode : Lossy
    Stream size : 95.9 MiB (13%)
    Alignment : Aligned on interleaves
    Interleave, duration : 40 ms (1.00 video frame)
    Interleave, preload duratio : 504 ms
    Writing library : LAME3.99r
    Encoding settings : -m s -V 4 -q 2 -lowpass 17 -b 128

    Скриншот c названием фильма

    Скриншоты

    Переделал рип и исправил ошибку с "длиной и шириной кадра".
    Скачать .torrent

    Скачать торрент-файл бесплатно и на максимальной скорости!

    Как скачивать? · Что такое торрент? · Рейтинг и ограничения

    !ВНИМАНИЕ!
    Сайт не распространяет и не хранит электронные версии произведений, а занимается лишь лишь предоставлением доступа к создаваемому пользователями каталогу ссылок на торрент-файлы, которые содержат только списки хеш-сумм, убедительная просьба с жалобами обращаться напрямую к пользователю. Файлы для обмена на трекере предоставлены пользователями сайта, и администрация не несёт ответственности за их содержание. Просьба не заливать файлы, защищенные авторскими правами, а также файлы нелегального содержания!


    _________________
    [Профиль] [ЛС]
    Показать сообщения:    
    Ответить на тему

    Текущее время: Сегодня, в 17:54

    Часовой пояс: GMT + 2



    Вы не можете начинать темы
    Вы не можете отвечать на сообщения
    Вы не можете редактировать свои сообщения
    Вы не можете удалять свои сообщения
    Вы не можете голосовать в опросах
    Вы не можете прикреплять файлы к сообщениям
    Вы не можете скачивать файлы