BitTorrentTracker PerecTracker.org
BitTorrentTracker PerecTracker.org
    
Регистрация  ·  Вход
 
 · 
Забыли пароль?

  • Тайное общество Супилинна / Supilinna Salaselts (Маргус Пайу / Margus Paju) [2015, Эстония, Финляндия, фэнтези, боевик, детектив, приключения, семейный, BDRip] Dub

    Ответить на тему
     
    Автор Сообщение

    Light

    Создавать темы 19-Мар-2016 23:49

           

    [Цитировать]

    Тайное общество Супилинна / Supilinna Salaselts
    Страна: Эстония, Финляндия
    Жанр: фэнтези, боевик, детектив, приключения, семейный
    Год выпуска: 2015
    Продолжительность: 01:44:48
    Перевод: Профессиональный (дублированный)
    Cубтитры: нет
    Режиссер: Маргус Пайу / Margus Paju
    В ролях: Арго Адли, Отт Аардам, Арабелла Антон, Грегор Келдер, Айн Лутсепп, Лаури Небель
    Описание: В очередные летние каникулы четверо детей — Мари, Саду, Олав и Антон — решили организовать команду. Чтобы дети не болтались без дела по городу, дедушка Мари придумал для них интересную игру. Они должны разыскивать в определенных местах предметы, которые он указывал на карте. Но в эту игру вмешалось одно обстоятельство. Кто-то в городе стал распространять странное вещество, от которого взрослые своим поведением стали напоминать детей. Теперь эта четверка должна остановить злодея и найти противоядие, чтобы спасти своих родственников и знакомых.
    Сэмпл: http://multi-up.com/1093773
    Исходник: Supilinna Salaselts (2015) Blu-ray BALTiC 1080i AVC DD5.1 / HDCLUB
    Качество видео: BDRip
    Формат видео: AVI
    Видео: 720x304 (2.35:1), 25.000 fps, XviD 73 ~1 523 kbps avg, 0.278 bit/pixel
    Аудио: AC3, 448.00 kbps, 48 kHz, 6 ch

    MediaInfo

    General
    Complete name : F:\Video\Фильмы\Supilinna Salaselts.2015.BDRip.1.46Gb.avi
    Format : AVI
    Format/Info : Audio Video Interleave
    File size : 1.45 GiB
    Duration : 1h 44mn
    Overall bit rate : 1 980 Kbps
    Writing application : VirtualDubMod 1.5.10.3 | www.virtualdub-fr.org || (build 2550/release)
    Writing library : VirtualDubMod build 2550/release
    Video
    ID : 0
    Format : MPEG-4 Visual
    Format profile : Advanced Simple@L5
    Format settings, BVOP : 1
    Format settings, QPel : No
    Format settings, GMC : No warppoints
    Format settings, Matrix : Custom
    Codec ID : XVID
    Codec ID/Hint : XviD
    Duration : 1h 44mn
    Bit rate : 1 523 Kbps
    Width : 720 pixels
    Height : 304 pixels
    Display aspect ratio : 2.35:1
    Frame rate : 25.000 fps
    Color space : YUV
    Chroma subsampling : 4:2:0
    Bit depth : 8 bits
    Scan type : Progressive
    Compression mode : Lossy
    Bits/(Pixel*Frame) : 0.278
    Stream size : 1.11 GiB (77%)
    Writing library : XviD 73
    Audio
    ID : 1
    Format : AC-3
    Format/Info : Audio Coding 3
    Mode extension : CM (complete main)
    Format settings, Endianness : Big
    Codec ID : 2000
    Duration : 1h 44mn
    Bit rate mode : Constant
    Bit rate : 448 Kbps
    Channel(s) : 6 channels
    Channel positions : Front: L C R, Side: L R, LFE
    Sampling rate : 48.0 KHz
    Frame rate : 31.250 fps (1536 spf)
    Compression mode : Lossy
    Stream size : 336 MiB (23%)
    Alignment : Split accross interleaves
    Interleave, duration : 40 ms (1.00 video frame)
    Interleave, preload duratio : 500 ms

    Скриншот c названием фильма

    Скриншоты

    Исправил перекроп.
    Скачать .torrent

    Скачать торрент-файл бесплатно и на максимальной скорости!

    Как скачивать? · Что такое торрент? · Рейтинг и ограничения

    !ВНИМАНИЕ!
    Сайт не распространяет и не хранит электронные версии произведений, а занимается лишь лишь предоставлением доступа к создаваемому пользователями каталогу ссылок на торрент-файлы, которые содержат только списки хеш-сумм, убедительная просьба с жалобами обращаться напрямую к пользователю. Файлы для обмена на трекере предоставлены пользователями сайта, и администрация не несёт ответственности за их содержание. Просьба не заливать файлы, защищенные авторскими правами, а также файлы нелегального содержания!


    _________________
    [Профиль] [ЛС]
    Показать сообщения:    
    Ответить на тему

    Текущее время: Сегодня, в 15:38

    Часовой пояс: GMT + 2



    Вы не можете начинать темы
    Вы не можете отвечать на сообщения
    Вы не можете редактировать свои сообщения
    Вы не можете удалять свои сообщения
    Вы не можете голосовать в опросах
    Вы не можете прикреплять файлы к сообщениям
    Вы не можете скачивать файлы