Register  ·  Log in
Forgot password?

  • Мистер Холмс / Mr. Holmes (Билл Кондон / Bill Condon) [2015, Великобритания, Драма, криминал, детектив, BDRip] AVO (Сербин)

    Reply to topic
    Author Message


    Post 20-Mar-2016 00:49



    Мистер Холмс / Mr. Holmes-Год выпуска: 2015
    Выпущено: Великобритания, США / AI-Film
    Жанр: драма, криминал, детектив
    Продолжительность: 01:43:44
    Перевод: Авторский (одноголосый закадровый) Юрий Сербин
    Cубтитры: нет-Режиссер:
    Билл Кондон / Bill Condon-В ролях:
    Иэн МакКеллен (Sherlock Holmes), Лора Линни (Mrs. Munro), Майло Паркер (Roger), Хироюки Санада (Tamiki Umezaki), Хэтти Морахэн (Ann Kelmot), Патрик Кеннеди (Thomas Kelmot), Роджер Аллам (Dr. Barrie), Филип Дэвис (Inspector Gilbert), Фрэнсис де ла Тур (Madame Schirmer), Чарльз Мэддокс (Oswald)-Описание:
    Действие развернется в 1947 году, а речь в фильме пойдет об отошедшем от дел Шерлоке Холмсе, живущем в сонной деревушке в Сассексе вместе с горничной миссис Манро и сыном, который занимается сыском в качестве хобби. Несмотря на уединенный образ жизни, знаменитому сыщику с Бейкер-стрит по-прежнему не дает покоя тайна так и нераскрытого 30 лет назад дела.-Релиз групп
    | | IMDB | КиноПоиск | Сэмпл |-Качество: BDRip [Mr.Holmes.2015.1080p.BluRay.AVC.DTS-HD.MA.5.1-RARBG]
    Формат: AVI
    Видео: 720x304 (2.37:1), 23.976 fps, XviD build 67 ~1611 kbps avg, 0.31 bit/pixel
    Аудио: 48 kHz, AC3 Dolby Digital, 3/2 (L,C,R,l,r) + LFE ch, ~384 kbps avg-



    Complete name                            : D:\Mister_Holmes_2015_BDRip_AVO_by_Dalemake.avi
    Format                                   : AVI
    Format/Info                              : Audio Video Interleave
    File size                                : 1.45 GiB
    Duration                                 : 1h 43mn
    Overall bit rate                         : 2 005 Kbps
    Writing application                      : VirtualDubMod | || (build 2550/release)
    Writing library                          : VirtualDubMod build 2550/release
    ID                                       : 0
    Format                                   : MPEG-4 Visual
    Format profile                           : Advanced Simple@L5
    Format settings, BVOP                    : 1
    Format settings, QPel                    : No
    Format settings, GMC                     : No warppoints
    Format settings, Matrix                  : Custom
    Codec ID                                 : XVID
    Codec ID/Hint                            : XviD
    Duration                                 : 1h 43mn
    Bit rate                                 : 1 612 Kbps
    Width                                    : 720 pixels
    Height                                   : 304 pixels
    Display aspect ratio                     : 2.35:1
    Frame rate                               : 23.976 (23976/1000) fps
    Color space                              : YUV
    Chroma subsampling                       : 4:2:0
    Bit depth                                : 8 bits
    Scan type                                : Progressive
    Compression mode                         : Lossy
    Bits/(Pixel*Frame)                       : 0.307
    Stream size                              : 1.17 GiB (80%)
    Writing library                          : XviD 67
    ID                                       : 1
    Format                                   : AC-3
    Format/Info                              : Audio Coding 3
    Mode extension                           : CM (complete main)
    Format settings, Endianness              : Big
    Codec ID                                 : 2000
    Duration                                 : 1h 43mn
    Bit rate mode                            : Constant
    Bit rate                                 : 384 Kbps
    Channel(s)                               : 6 channels
    Channel positions                        : Front: L C R, Side: L R, LFE
    Sampling rate                            : 48.0 KHz
    Frame rate                               : 31.250 fps (1536 spf)
    Compression mode                         : Lossy
    Stream size                              : 285 MiB (19%)
    Alignment                                : Split accross interleaves
    Interleave, duration                     : 42 ms (1.00 video frame)
    Interleave, preload duration             : 500 ms
    Download .torrent

    Download free and at maximum speed!

    How to Download? · What is a torrent? · Ratings and Limitations

    The site does not extend and does not store electronic(digital) versions of products, and only gives access to a reference catalogue created by users on torrent-files which contain only lists of the hash-sums, the earnest entreaty, with complaints(abuse) to access directly to the user. Files for an exchange on tracker are given by users of a site, and the administration does not bear the responsibility for their maintenance. The request to not fill in the files protected by copyrights, and also files of the illegal maintenance!

    [Profile] [PM]
    Display posts from previous:    
    Reply to topic

    The time now is: Today 10:58

    All times are GMT + 3 Hours

    You cannot post new topics in this forum
    You cannot reply to topics in this forum
    You cannot edit your posts in this forum
    You cannot delete your posts in this forum
    You cannot vote in polls in this forum
    You cannot attach files in this forum
    You cannot download files in this forum