BitTorrentTracker PerecTracker.org
BitTorrentTracker PerecTracker.org
    
Регистрация  ·  Вход
 
 · 
Забыли пароль?

  • Убийца / Sicario (Дени Вильнёв / Denis Villeneuve) [2015, США, боевик, триллер, драма, криминал, детектив, BDRemux 1080p] Dub + VO (Алексей Матвеев) + VO (Дмитрий Есарев) + Sub Rus, Eng + Original Eng

    Ответить на тему
     
    Автор Сообщение

    Light

    Создавать темы 19-Мар-2016 19:37

           

    [Цитировать]

    -Убийца / Sicario-Страна: США
    Жанр: боевик, триллер, драма, криминал, детектив
    Год выпуска: 2015
    Продолжительность: 02:01:20
    Перевод: Профессиональный (дублированный)
    Перевод 2: Одноголосый закадровый Алексей Матвеев
    Перевод 3: Одноголосый закадровый Дмитрий Есарев (2 варианта - с матом и без)
    Cубтитры: русские (форсированные, Воронин, Матвеев), английские х3
    Оригинальная аудиодорожка: английский-Режиссер: Дени Вильнёв / Denis Villeneuve
    В ролях: Эмили Блант (Kate Macer), Бенисио Дель Торо (Alejandro), Джош Бролин (Matt Graver), Виктор Гарбер (Dave Jennings), Джон Бернтал (Ted), Дэниэл Калуя (Reggie Wayne), Джеффри Донован (Steve Forsing), Рауль Трухильо (Rafael), Хулио Седильо (Fausto Alarcon), Хэнк Роджерсон (Phil Coopers), Бернардо Галлегос (Manuel Diaz), Максимилиано Эрнандес (Silvio)-Описание: На американо-мексиканской границе женщина-полицейский сопровождает двух рейнджеров, которые преследуют наркобарона. Она не подозревает, что по ту сторону границы есть тайное место, где не действуют никакие законы и царят насилие и разврат.-Сэмпл: https://yadi.sk/i/PvCmFRhVqGjhX-Тип релиза: BDRemux 1080p
    Контейнер: MKV
    Видео: MPEG-4 AVC Video / 33129 kbps / 1080p / 23.976 fps / 16:9 / High Profile 4.1
    Аудио: Russian Dolby Digital Audio 384 kbps 5.1 / 48 kHz | Дубляж
    Аудио 2: Russian DTS-HD Master Audio 7.1 / 48 kHz / 4524 kbps / 24-bit (DTS Core: 5.1 / 48 kHz / 1509 kbps / 24-bit) | Алексей Матвеев
    Аудио 3: Russian DTS-HD Master Audio 7.1 / 48 kHz / 4499 kbps / 24-bit (DTS Core: 5.1 / 48 kHz / 1509 kbps / 24-bit) | Дмитрий Есарев (ненормативный)
    Аудио 4: Russian Dolby Digital Audio 448 kbps 5.1 / 48 kHz | Дмитрий Есарев (цензурный)
    Аудио 5: English DTS-HD Master Audio 7.1 / 48 kHz / 3471 kbps / 24-bit (DTS Core: 5.1 / 48 kHz / 1509 kbps / 24-bit)
    Формат субтитров: softsub (SRT)

    MI

    GeneralUnique ID : 180800616848471753588063939424837062816 (0x8804EEA4587C1F039A27955775DE50A0)Complete name : S:\На хранении\Убийца (2015. Sicario).mkvFormat : MatroskaFormat version : Version 2File size : 39.3 GiBDuration : 2h 1mnOverall bit rate mode : VariableOverall bit rate : 46.4 MbpsMovie name : Release for RuTrackerEncoded date : UTC 2016-03-17 15:45:50Writing application : mkvmerge v4.9.1 ('Ich will') сборка от Jul 11 2011 23:53:15Writing library : libebml v1.2.1 + libmatroska v1.1.1Cover : YesAttachments : Cover.jpg
    VideoID : 1Format : AVCFormat/Info : Advanced Video CodecFormat profile : High@L4.1Format settings, CABAC : YesFormat settings, ReFrames : 4 framesCodec ID : V_MPEG4/ISO/AVCDuration : 2h 1mnBit rate mode : VariableMaximum bit rate : 35.5 MbpsWidth : 1 920 pixelsHeight : 1 080 pixelsDisplay aspect ratio : 16:9Frame rate mode : ConstantFrame rate : 23.976 (24000/1001) fpsColor space : YUVChroma subsampling : 4:2:0Bit depth : 8 bitsScan type : ProgressiveTitle : Sicario 2015 1080p CAN Blu-ray AVC TrueHD 7.1-PCHLanguage : EnglishDefault : YesForced : No
    Audio #1ID : 2Format : AC-3Format/Info : Audio Coding 3Mode extension : CM (complete main)Format settings, Endianness : BigCodec ID : A_AC3Duration : 2h 1mnBit rate mode : ConstantBit rate : 384 KbpsChannel(s) : 6 channelsChannel positions : Front: L C R, Side: L R, LFESampling rate : 48.0 KHzFrame rate : 31.250 fps (1536 spf)Compression mode : LossyStream size : 333 MiB (1%)Title : ДубляжLanguage : RussianDefault : YesForced : No
    Audio #2ID : 3Format : DTSFormat/Info : Digital Theater SystemsFormat profile : MA / CoreMode : 16Format settings, Endianness : BigCodec ID : A_DTSDuration : 2h 1mnBit rate mode : Variable / ConstantBit rate : Unknown / 1 509 KbpsChannel(s) : 8 channels / 6 channelsChannel positions : Front: L C R, Side: L R, Back: L R, LFE / Front: L C R, Side: L R, LFESampling rate : 48.0 KHzFrame rate : 93.750 fps (512 spf)Bit depth : 24 bitsCompression mode : Lossless / LossyTitle : Алексей "Doctor_Joker" МатвеевLanguage : RussianDefault : NoForced : No
    Audio #3ID : 4Format : DTSFormat/Info : Digital Theater SystemsFormat profile : MA / CoreMode : 16Format settings, Endianness : BigCodec ID : A_DTSDuration : 2h 1mnBit rate mode : Variable / ConstantBit rate : Unknown / 1 509 KbpsChannel(s) : 8 channels / 6 channelsChannel positions : Front: L C R, Side: L R, Back: L R, LFE / Front: L C R, Side: L R, LFESampling rate : 48.0 KHzFrame rate : 93.750 fps (512 spf)Bit depth : 24 bitsCompression mode : Lossless / LossyTitle : Дмитрий Есарев (ненормативный)Language : RussianDefault : NoForced : No
    Audio #4ID : 5Format : AC-3Format/Info : Audio Coding 3Mode extension : CM (complete main)Format settings, Endianness : BigCodec ID : A_AC3Duration : 2h 1mnBit rate mode : ConstantBit rate : 448 KbpsChannel(s) : 6 channelsChannel positions : Front: L C R, Side: L R, LFESampling rate : 48.0 KHzFrame rate : 31.250 fps (1536 spf)Compression mode : LossyStream size : 389 MiB (1%)Title : Дмитрий Есарев (цензурный)Language : RussianDefault : NoForced : No
    Audio #5ID : 6Format : DTSFormat/Info : Digital Theater SystemsFormat profile : MA / CoreMode : 16Format settings, Endianness : BigCodec ID : A_DTSDuration : 2h 1mnBit rate mode : Variable / ConstantBit rate : Unknown / 1 509 KbpsChannel(s) : 8 channels / 6 channelsChannel positions : Front: L C R, Side: L R, Back: L R, LFE / Front: L C R, Side: L R, LFESampling rate : 48.0 KHzFrame rate : 93.750 fps (512 spf)Bit depth : 24 bitsCompression mode : Lossless / LossyLanguage : EnglishDefault : NoForced : No
    Text #1ID : 7Format : UTF-8Codec ID : S_TEXT/UTF8Codec ID/Info : UTF-8 Plain TextTitle : forcedLanguage : RussianDefault : YesForced : No
    Text #2ID : 8Format : UTF-8Codec ID : S_TEXT/UTF8Codec ID/Info : UTF-8 Plain TextTitle : Алексей "Doctor_Joker" МатвеевLanguage : RussianDefault : NoForced : No
    Text #3ID : 9Format : UTF-8Codec ID : S_TEXT/UTF8Codec ID/Info : UTF-8 Plain TextTitle : voronineLanguage : RussianDefault : NoForced : No
    Text #4ID : 10Format : UTF-8Codec ID : S_TEXT/UTF8Codec ID/Info : UTF-8 Plain TextTitle : voronine SDHLanguage : RussianDefault : NoForced : No
    Text #5ID : 11Format : UTF-8Codec ID : S_TEXT/UTF8Codec ID/Info : UTF-8 Plain TextTitle : ForcedLanguage : EnglishDefault : NoForced : No
    Text #6ID : 12Format : UTF-8Codec ID : S_TEXT/UTF8Codec ID/Info : UTF-8 Plain TextLanguage : EnglishDefault : NoForced : No
    Text #7ID : 13Format : UTF-8Codec ID : S_TEXT/UTF8Codec ID/Info : UTF-8 Plain TextTitle : SDHLanguage : EnglishDefault : NoForced : No
    Menu00:00:00.000 : en:Chapter 100:07:14.350 : en:Chapter 200:12:55.107 : en:Chapter 300:20:04.369 : en:Chapter 400:25:24.814 : en:Chapter 500:32:11.596 : en:Chapter 600:39:24.820 : en:Chapter 700:46:15.314 : en:Chapter 800:53:24.576 : en:Chapter 901:01:40.321 : en:Chapter 1001:10:49.119 : en:Chapter 1101:18:02.886 : en:Chapter 1201:30:59.370 : en:Chapter 1301:36:57.770 : en:Chapter 1401:47:42.038 : en:Chapter 1501:54:12.804 : en:Chapter 16
    Скриншоты

    Зеркало


    Цитата:
    Цитата:

    • Ремукс сделан с канадского трансфера, в нем отсутствует хардсаб. Оригинальный TrueHD-звук пережат в DTS-HD без потерь качества.
    • Дубляж с iTunes.
    • Перевод Дмитрия Есарева доступен благодаря: mv73, dikii, mihey10, DREADG, napaHouk, shurikkein, -ALCASTER-, nortonn, Skazhutin. Работа со звуком mihaildns (цензурный) и Skazhutin (ненормативный).
    • Перевод Doctor_Joker доступен благодаря заказу будулайроманов, работа со звуком Переводман.
    • Сохранены оригинальные чаптеры как на Blu-ray.
    Скачать .torrent

    Скачать торрент-файл бесплатно и на максимальной скорости!

    Как скачивать? · Что такое торрент? · Рейтинг и ограничения

    !ВНИМАНИЕ!
    Сайт не распространяет и не хранит электронные версии произведений, а занимается лишь лишь предоставлением доступа к создаваемому пользователями каталогу ссылок на торрент-файлы, которые содержат только списки хеш-сумм, убедительная просьба с жалобами обращаться напрямую к пользователю. Файлы для обмена на трекере предоставлены пользователями сайта, и администрация не несёт ответственности за их содержание. Просьба не заливать файлы, защищенные авторскими правами, а также файлы нелегального содержания!


    _________________
    [Профиль] [ЛС]
    Показать сообщения:    
    Ответить на тему

    Текущее время: Сегодня, в 22:09

    Часовой пояс: GMT + 2



    Вы не можете начинать темы
    Вы не можете отвечать на сообщения
    Вы не можете редактировать свои сообщения
    Вы не можете удалять свои сообщения
    Вы не можете голосовать в опросах
    Вы не можете прикреплять файлы к сообщениям
    Вы не можете скачивать файлы