Register  ·  Log in
Forgot password?

  • Зараженная / Мэгги / Maggie (Генри Хобсон / Henry Hobson) [2015, США, Драма, триллер, ужасы, BDRip] MVO + Original (Eng) + Subs (Rus, Eng)

    Reply to topic
    Author Message


    Post 19-Mar-2016 20:37



    Зараженная / Мэгги / Maggie-Год выпуска: 2015
    Выпущено: США, Швейцария / Lionsgate, Gold Star Films
    Жанр: драма, триллер, ужасы
    Продолжительность: 01:35:03
    Перевод: Профессиональный (многоголосый закадровый)
    Cубтитры: Русские, Английские (полные, SDH) (внешние .srt*)
    Оригинальная аудиодорожка: Английская-Режиссер:
    Генри Хобсон / Henry Hobson-В ролях:
    Арнольд Шварценеггер (Wade Vogel), Эбигейл Бреслин (Maggie Vogel), Джоэли Ричардсон (Caroline), Дуглас М. Гриффин (Ray), Дж.Д. Эвермор (Holt), Рэйчел Уитман Гровс (Bonnie), Джоди Мур (Dr. Kaplan), Брайс Ромеро (Trent), Рэден Грир (Allie), Эйден Флауэрс (Bobby)-Описание:
    Девочка-подросток Мэгги заражается болезнью, медленно превращающей инфицированных в зомби. Правительство организует карантин для инфицированных, где их помещают в изоляцию. Её любящий отец не готов помещать её в карантин, и она живёт вместе с ним.-Релиз групп
    | | IMDB | КиноПоиск | Сэмпл |-Качество: BDRip [Maggie.2015.1080p.BluRay.AVC.DTS-HD.MA.5.1-RARBG]
    Формат: AVI
    Видео: 720x304 (2.37:1), 23.976 fps, XviD build 73 ~1800 kbps avg, 0.34 bit/pixel
    Аудио #1: 48 kHz, AC3 Dolby Digital, 3/2 (L,C,R,l,r) + LFE ch, ~384.00 kbps avg (RUS) - iTunes Russia
    Аудио #2: 48 kHz, AC3 Dolby Digital, 3/2 (L,C,R,l,r) + LFE ch, ~384.00 kbps avg (ENG) отдельно-




    Complete name                            : D:\Maggie_2015_BDRip_iT_by_Dalemake.avi
    Format                                   : AVI
    Format/Info                              : Audio Video Interleave
    File size                                : 1.46 GiB
    Duration                                 : 1h 35mn
    Overall bit rate                         : 2 194 Kbps
    Writing application                      : VirtualDubMod | || (build 2550/release)
    Writing library                          : VirtualDubMod build 2550/release
    ID                                       : 0
    Format                                   : MPEG-4 Visual
    Format profile                           : Advanced Simple@L5
    Format settings, BVOP                    : 1
    Format settings, QPel                    : No
    Format settings, GMC                     : No warppoints
    Format settings, Matrix                  : Custom
    Codec ID                                 : XVID
    Codec ID/Hint                            : XviD
    Duration                                 : 1h 35mn
    Bit rate                                 : 1 801 Kbps
    Width                                    : 720 pixels
    Height                                   : 304 pixels
    Display aspect ratio                     : 2.35:1
    Frame rate                               : 23.976 (23976/1000) fps
    Color space                              : YUV
    Chroma subsampling                       : 4:2:0
    Bit depth                                : 8 bits
    Scan type                                : Progressive
    Compression mode                         : Lossy
    Bits/(Pixel*Frame)                       : 0.343
    Stream size                              : 1.20 GiB (82%)
    Writing library                          : XviD 73
    ID                                       : 1
    Format                                   : AC-3
    Format/Info                              : Audio Coding 3
    Mode extension                           : CM (complete main)
    Format settings, Endianness              : Big
    Codec ID                                 : 2000
    Duration                                 : 1h 35mn
    Bit rate mode                            : Constant
    Bit rate                                 : 384 Kbps
    Channel(s)                               : 6 channels
    Channel positions                        : Front: L C R, Side: L R, LFE
    Sampling rate                            : 48.0 KHz
    Frame rate                               : 31.250 fps (1536 spf)
    Compression mode                         : Lossy
    Stream size                              : 261 MiB (17%)
    Alignment                                : Split accross interleaves
    Interleave, duration                     : 42 ms (1.00 video frame)
    Interleave, preload duration             : 500 ms
    Download .torrent

    Download free and at maximum speed!

    How to Download? · What is a torrent? · Ratings and Limitations

    The site does not extend and does not store electronic(digital) versions of products, and only gives access to a reference catalogue created by users on torrent-files which contain only lists of the hash-sums, the earnest entreaty, with complaints(abuse) to access directly to the user. Files for an exchange on tracker are given by users of a site, and the administration does not bear the responsibility for their maintenance. The request to not fill in the files protected by copyrights, and also files of the illegal maintenance!

    [Profile] [PM]
    Display posts from previous:    
    Reply to topic

    The time now is: Today 09:22

    All times are GMT + 3 Hours

    You cannot post new topics in this forum
    You cannot reply to topics in this forum
    You cannot edit your posts in this forum
    You cannot delete your posts in this forum
    You cannot vote in polls in this forum
    You cannot attach files in this forum
    You cannot download files in this forum