BitTorrentTracker PerecTracker.org
BitTorrentTracker PerecTracker.org
    
Регистрация  ·  Вход
 
 · 
Забыли пароль?

  • Проклятие колдовского дерева / Curse of the Witching Tree (Джеймс Кроу / James Crowe) [2015, Великобритания, ужасы, мистика, WEB-DLRip] DVO (DeadSno & den904)

    Ответить на тему
     
    Автор Сообщение

    Light

    Создавать темы 19-Мар-2016 19:37

           

    [Цитировать]

    -Проклятие колдовского дереваCurse of the Witching Tree-Страна: Великобритания
    Жанр: ужасы, мистика
    Год выпуска: 2015
    Продолжительность: 01:42:37-Перевод: Любительский (двухголосый закадровый) DeadSno & den904
    Cубтитры: нет
    Режиссер: Джеймс Кроу / James Crowe-В ролях: Сара Роуз Дентон, Люси Джейн Клэрвис, Лоуренс Веллер, Чарли Бонд, Вив Бонни, Кэролайн Болтон, Даниэль Бакс, Роб Бирн, Джон Кэмплинг, Фрэнки Джеймс Дэнтон-
    Описание: Семья переезжает на новую ферму, где, по слухам, жила ведьма, убившая собственного сына и еще 9 детей. В то время, как отец семейства лежит в коме, а жена и дети надеются на его возвращение к ним, в доме начинает пробуждаться древнее зло, потревоженное шуточным спиритическим сеансом, который провели хулиганы в том самом сарае, где ведьма совершала свои страшные злодеяния…--Качество видео: WEB-DLRip
    Формат видео: AVI
    Видео: 720x304 (2.37:1), 23.976 fps, XviD MPEG-4 ~1727 kbps avg, 0.33 bit/pixel
    Аудио: 48 kHz,31.250 fps, AC3 Dolby Digital, 2/0 (L,R) ch, ~192 kbps-

    MediaInfo

    General
    Complete name : D:\Фильмы\Curse of the Witching Tree.avi
    Format : AVI
    Format/Info : Audio Video Interleave
    File size : 1.38 GiB
    Duration : 1h 42mn
    Overall bit rate : 1 928 Kbps
    Writing application : VirtualDubMod 1.5.10.3 (build 2550/release)
    Writing library : VirtualDubMod build 2550/release
    Video
    ID : 0
    Format : MPEG-4 Visual
    Format profile : Advanced Simple@L5
    Format settings, BVOP : 2
    Format settings, QPel : No
    Format settings, GMC : No warppoints
    Format settings, Matrix : Default (H.263)
    Muxing mode : Packed bitstream
    Codec ID : XVID
    Codec ID/Hint : XviD
    Duration : 1h 42mn
    Bit rate : 1 727 Kbps
    Width : 720 pixels
    Height : 304 pixels
    Display aspect ratio : 2.35:1
    Frame rate : 23.976 (23976/1000) fps
    Color space : YUV
    Chroma subsampling : 4:2:0
    Bit depth : 8 bits
    Scan type : Progressive
    Compression mode : Lossy
    Bits/(Pixel*Frame) : 0.329
    Stream size : 1.24 GiB (90%)
    Writing library : XviD 73
    Audio
    ID : 1
    Format : AC-3
    Format/Info : Audio Coding 3
    Mode extension : CM (complete main)
    Format settings, Endianness : Big
    Codec ID : 2000
    Duration : 1h 42mn
    Bit rate mode : Constant
    Bit rate : 192 Kbps
    Channel(s) : 2 channels
    Channel positions : Front: L R
    Sampling rate : 48.0 KHz
    Frame rate : 31.250 fps (1536 spf)
    Compression mode : Lossy
    Stream size : 141 MiB (10%)
    Alignment : Split accross interleaves
    Interleave, duration : 42 ms (1.00 video frame)
    Interleave, preload duratio : 500 ms

    -

    Скриншот c названием фильма

    Скриншоты

    -
    Скачать .torrent

    Скачать торрент-файл бесплатно и на максимальной скорости!

    Как скачивать? · Что такое торрент? · Рейтинг и ограничения

    !ВНИМАНИЕ!
    Сайт не распространяет и не хранит электронные версии произведений, а занимается лишь лишь предоставлением доступа к создаваемому пользователями каталогу ссылок на торрент-файлы, которые содержат только списки хеш-сумм, убедительная просьба с жалобами обращаться напрямую к пользователю. Файлы для обмена на трекере предоставлены пользователями сайта, и администрация не несёт ответственности за их содержание. Просьба не заливать файлы, защищенные авторскими правами, а также файлы нелегального содержания!


    _________________
    [Профиль] [ЛС]
    Показать сообщения:    
    Ответить на тему

    Текущее время: Сегодня, в 18:35

    Часовой пояс: GMT + 2



    Вы не можете начинать темы
    Вы не можете отвечать на сообщения
    Вы не можете редактировать свои сообщения
    Вы не можете удалять свои сообщения
    Вы не можете голосовать в опросах
    Вы не можете прикреплять файлы к сообщениям
    Вы не можете скачивать файлы