BitTorrentTracker PerecTracker.org
BitTorrentTracker PerecTracker.org
    
Регистрация  ·  Вход
 
 · 
Забыли пароль?

  • Преступление государства / Crime d\'Etat (Пьер Акнин / Pierre Aknine) [2012, Франция, историческая драма, DVB] Original (Fre) + Sub (Rus, Eng, Fre, Deu)

    Ответить на тему
     
    Автор Сообщение

    Light

    Создавать темы 19-Мар-2016 15:25

           

    [Цитировать]

    Преступление государства
    Crime d'État-Страна: Франция
    Жанр: историческая драма
    Год выпуска: 2012
    Продолжительность: 01:33:19
    Перевод: Субтитры (перевод О.Першиной, Éclair Group)
    Cубтитры: русские, английские, французские, немецкие, нидерландские, румынские
    Оригинальная аудиодорожка: французский
    Режиссер: Пьер Акнин / Pierre AknineВ ролях: Франсуа Берлеан / François Berléand (Robert Boulin), Флоранс Мюллер / Florence Muller (Colette Boulin), Филипп Торретон / Philippe Torreton (Tournet), Андре Маркон / André Marcon (Foccart), Микаэль Абитбуль / Michaël Abiteboul (Yann Gaillard)
    Описание: Фильм снят по реальным событиям. 30 октября 1979 года 59-летний министр труда Франции Робер Булен, незадолго до этого обвиненный в причастности к скандалу с приобретением недвижимости, был найден мертвым в мелком пруду в лесу Рамбуйе. По официальной версии, Булен, который одно время считался возможным кандидатом на пост премьер-министра, утонул в пруду после приема наркотических средств – барбитуратов – это было самоубийство. Эту версию оспаривает семья покойного политика: его дочь Фабьен Булен-Буржа / Fabienne Boulin-Burgeat недавно издала книгу "Спящий в долине / Le dormeur du val" (2011), в которой утверждается, что ее отца убили…
    Доп. информация: Hot Bird (13.0°E) TV5MONDE Europe DVB-S
    Участник Festival Les Hérault du Cinéma et de la Télé 2013.

    Качество видео: DVB
    Формат видео: TS
    Видео: MPEG Video 2, 720x576@1024x576 (16:9), 25 fps, ~3255 kbps avg, 0.314 bit/pixel
    Аудио: MPEG Audio 2, 2 ch, 48 kHz, 192 kbps - французский
    Формат субтитров: PGS

    MediaInfo

    GeneralID : 1 (0x1)Complete name : [apreder]Crime_d'Etat(2012)DVB.tsFormat : MPEG-TSFile size : 2.37 GiBDuration : 1h 33mnOverall bit rate mode : VariableOverall bit rate : 3 629 KbpsMaximum Overall bit rate : 35.5 Mbps
    VideoID : 4113 (0x1011)Menu ID : 1 (0x1)Format : MPEG VideoFormat version : Version 2Format profile : Main@MainFormat settings, BVOP : YesFormat settings, Matrix : CustomFormat settings, GOP : M=4, N=12Format settings, picture structure : FrameCodec ID : 2Duration : 1h 33mnBit rate mode : VariableBit rate : 3 255 KbpsWidth : 720 pixelsHeight : 576 pixelsDisplay aspect ratio : 16:9Frame rate : 25.000 fpsStandard : PALColor space : YUVChroma subsampling : 4:2:0Bit depth : 8 bitsScan type : InterlacedScan order : Top Field FirstCompression mode : LossyBits/(Pixel*Frame) : 0.314Time code of first frame : 00:00:00:00Time code source : Group of pictures headerGOP, Open/Closed : OpenGOP, Open/Closed of first frame : ClosedStream size : 2.12 GiB (90%)
    AudioID : 4352 (0x1100)Menu ID : 1 (0x1)Format : MPEG AudioFormat version : Version 1Format profile : Layer 2Mode : Joint stereoMode extension : Intensity Stereo + MS StereoCodec ID : 4Duration : 1h 33mnBit rate mode : ConstantBit rate : 192 KbpsChannel(s) : 2 channelsSampling rate : 48.0 KHzCompression mode : LossyStream size : 128 MiB (5%)Language : French
    Text #1ID : 4608 (0x1200)Menu ID : 1 (0x1)Format : PGSCodec ID : 144Duration : 1h 32mnDelay relative to video : 19s 240msLanguage : Russian
    Text #2ID : 4609 (0x1201)Menu ID : 1 (0x1)Format : PGSCodec ID : 144Duration : 1h 32mnDelay relative to video : 19s 160msLanguage : English
    Text #3ID : 4610 (0x1202)Menu ID : 1 (0x1)Format : PGSCodec ID : 144Duration : 1h 32mnDelay relative to video : 19s 240msLanguage : French
    Text #4ID : 4611 (0x1203)Menu ID : 1 (0x1)Format : PGSCodec ID : 144Duration : 1h 32mnDelay relative to video : 19s 160msLanguage : German
    Text #5ID : 4612 (0x1204)Menu ID : 1 (0x1)Format : PGSCodec ID : 144Duration : 1h 32mnDelay relative to video : 19s 160msLanguage : Dutch
    Text #6ID : 4613 (0x1205)Menu ID : 1 (0x1)Format : PGSCodec ID : 144Duration : 1h 32mnDelay relative to video : 19s 160msLanguage : Romanian

    Скриншот c названием фильма

    Скриншоты

    Резервные скриншоты


    -[1'039]
    Скачать .torrent

    Скачать торрент-файл бесплатно и на максимальной скорости!

    Как скачивать? · Что такое торрент? · Рейтинг и ограничения

    !ВНИМАНИЕ!
    Сайт не распространяет и не хранит электронные версии произведений, а занимается лишь лишь предоставлением доступа к создаваемому пользователями каталогу ссылок на торрент-файлы, которые содержат только списки хеш-сумм, убедительная просьба с жалобами обращаться напрямую к пользователю. Файлы для обмена на трекере предоставлены пользователями сайта, и администрация не несёт ответственности за их содержание. Просьба не заливать файлы, защищенные авторскими правами, а также файлы нелегального содержания!


    _________________
    [Профиль] [ЛС]
    Показать сообщения:    
    Ответить на тему

    Текущее время: Сегодня, в 09:59

    Часовой пояс: GMT + 2



    Вы не можете начинать темы
    Вы не можете отвечать на сообщения
    Вы не можете редактировать свои сообщения
    Вы не можете удалять свои сообщения
    Вы не можете голосовать в опросах
    Вы не можете прикреплять файлы к сообщениям
    Вы не можете скачивать файлы