BitTorrentTracker PerecTracker.org
BitTorrentTracker PerecTracker.org
    
Регистрация  ·  Вход
 
 · 
Забыли пароль?

  • Колония / Colony / Сезон: 1 / Серии: 1-10 из 10 (Хуан Хосе Кампанелла) [2016, драма, фантастика, HDTVRip 720p] Original + Rus Subs (N-Team) + Eng Subs

    Ответить на тему
     
    Автор Сообщение

    rechyn

    Создавать темы 19-Мар-2016 13:12

           

    [Цитировать]

    Колония / Colony
    Год выпуска: 2016
    Страна: США
    Жанр: драма, фантастика
    Продолжительность: ~42 минуты
    Перевод: Субтитры N-Team
    Режиссёр: Хуан Хосе Кампанелла
    В ролях: Джош Холлоуэй, Сара Уэйн Кэллис, Питер Джекобсон, Аманда Ригетти, Алекс Нюстадтер, Изабелла Крамп, Гонсало Менендес, Ким Родс
    Описание: В ближайшем будущем семья пытается спасти жителей оккупированного пришельцами Лос-Анджелеса. Бывший агент ФБР Уилл Боумэн и его супруга Кейти пробуют вернуть сына.
    Уилл готов работать на новое правительство, тогда как многие в городе поддерживают повстанцев. Лидер режима Снайдер предлагает Уиллу сделку, которая изменит их жизнь и заставит семью пойти на большой риск.
    Ссылка на предыдущие и альтернативные раздачи: http://perectracker.org/http://perectracker.org/tracker.php?f=318&nm=colony
    Сэмпл: http://multi-up.com/1085544
    Качество: HDTVRip 720p
    Контейнер: MKV
    Видео: H.264, 1280x720 (16:9), 23.976 fps, 4020 kbps, 0.182 bit/pixel
    Аудио: AC3, 48 KHz, 2 ch, 384 Kbps, [Eng]
    Субтитры: softsub (SRT), русские, английские

    Список серий

    1. Pilot / Пилотная серия
    2. Brave New World / О дивный новый мир
    3. 98 Seconds / 98 секунд
    4. Blind Spot / Слепая зона
    5. Geronimo / Джеронимо
    6. Yoknapatawpha / Йокнапатафа
    7. Broussard / Бруссар
    8. In from the Cold / Раскрытие
    9. Zero Day / Нулевой день
    10. Gateway / Въезд

    MediaInfo

    General
    Unique ID : 41377878324121631122752764158446229445 (0x1F2116E8D07393B895296D7142DD57C5)
    Complete name : D:\Видео\Colony Season 1 HD 720p [N-Team]\Colony.S01E01.720p.mkv
    Format : Matroska
    Format version : Version 4 / Version 2
    File size : 1.54 GiB
    Duration : 49mn 1s
    Overall bit rate : 4 493 Kbps
    Encoded date : UTC 2016-01-02 01:58:26
    Writing application : mkvmerge v7.0.0 ('Where We Going') 64bit built on Jun 22 2014 08:19:39
    Writing library : libebml v1.3.0 + libmatroska v1.4.1
    Video
    ID : 1
    Format : AVC
    Format/Info : Advanced Video Codec
    Format profile : High@L4.1
    Format settings, CABAC : Yes
    Format settings, ReFrames : 5 frames
    Codec ID : V_MPEG4/ISO/AVC
    Duration : 49mn 1s
    Bit rate : 4 020 Kbps
    Width : 1 280 pixels
    Height : 720 pixels
    Display aspect ratio : 16:9
    Frame rate mode : Constant
    Frame rate : 23.976 fps
    Color space : YUV
    Chroma subsampling : 4:2:0
    Bit depth : 8 bits
    Scan type : Progressive
    Bits/(Pixel*Frame) : 0.182
    Stream size : 1.38 GiB (89%)
    Writing library : x264 core 148 r2638 7599210
    Encoding settings : cabac=1 / ref=5 / deblock=1:0:0 / analyse=0x3:0x113 / me=umh / subme=8 / psy=1 / psy_rd=1.00:0.00 / mixed_ref=1 / me_range=16 / chroma_me=1 / trellis=1 / 8x8dct=1 / cqm=0 / deadzone=21,11 / fast_pskip=1 / chroma_qp_offset=-2 / threads=22 / lookahead_threads=3 / sliced_threads=0 / nr=0 / decimate=1 / interlaced=0 / bluray_compat=0 / constrained_intra=0 / bframes=3 / b_pyramid=2 / b_adapt=2 / b_bias=0 / direct=3 / weightb=1 / open_gop=0 / weightp=2 / keyint=250 / keyint_min=23 / scenecut=40 / intra_refresh=0 / rc_lookahead=50 / rc=crf / mbtree=1 / crf=18.0 / qcomp=0.60 / qpmin=0 / qpmax=69 / qpstep=4 / ip_ratio=1.40 / aq=1:1.00
    Language : English
    Default : Yes
    Forced : No
    Matrix coefficients : BT.709
    Color range : Limited
    Audio
    ID : 2
    Format : AC-3
    Format/Info : Audio Coding 3
    Mode extension : CM (complete main)
    Format settings, Endianness : Big
    Codec ID : A_AC3
    Duration : 49mn 1s
    Bit rate mode : Constant
    Bit rate : 384 Kbps
    Channel(s) : 6 channels
    Channel positions : Front: L C R, Side: L R, LFE
    Sampling rate : 48.0 KHz
    Bit depth : 16 bits
    Compression mode : Lossy
    Stream size : 135 MiB (9%)
    Default : Yes
    Forced : No

    Скриншоты

    Скачать .torrent

    Скачать торрент-файл бесплатно и на максимальной скорости!

    Как скачивать? · Что такое торрент? · Рейтинг и ограничения

    !ВНИМАНИЕ!
    Сайт не распространяет и не хранит электронные версии произведений, а занимается лишь лишь предоставлением доступа к создаваемому пользователями каталогу ссылок на торрент-файлы, которые содержат только списки хеш-сумм, убедительная просьба с жалобами обращаться напрямую к пользователю. Файлы для обмена на трекере предоставлены пользователями сайта, и администрация не несёт ответственности за их содержание. Просьба не заливать файлы, защищенные авторскими правами, а также файлы нелегального содержания!


    _________________
    [Профиль] [ЛС]

    -746

    Создавать темы 19-Мар-2016 23:18 (спустя 10 часов)

           

    Топик был перенесен из форума Наши сериалы в форум Зарубежные сериалы


    -sasha2006

    _________________
    Как бы ты высоко не летал, не забывай, с кем ты ползал..
     
    Показать сообщения:    
    Ответить на тему

    Текущее время: Сегодня, в 22:27

    Часовой пояс: GMT + 2



    Вы не можете начинать темы
    Вы не можете отвечать на сообщения
    Вы не можете редактировать свои сообщения
    Вы не можете удалять свои сообщения
    Вы не можете голосовать в опросах
    Вы не можете прикреплять файлы к сообщениям
    Вы не можете скачивать файлы