BitTorrentTracker PerecTracker.org
BitTorrentTracker PerecTracker.org
    
Регистрация  ·  Вход
 
 · 
Забыли пароль?

  • [ATV3] Чемпионы: Быстрее. Выше. Сильнее (Артем Аксененко) [2016, Россия, Спорт, драма, WEB-DL, HD (1080p)] Original

    Ответить на тему
     
    Автор Сообщение

    rechyn

    Создавать темы 19-Мар-2016 02:54

           

    [Цитировать]

    Чемпионы: Быстрее. Выше. Сильнее
    -
    7.566 / 10
    -Год выпуска: 2016
    Страна: Россия
    Жанр: Спорт, драма
    Продолжительность: 01:43:45
    Перевод: Не требуется
    Оригинальная аудиодорожка: Есть
    Режиссёр: Артем Аксененко
    Сценарий: Эмиль Никогосян, Александр Маркин
    Продюсер: Георгий Малков, Владимир Поляков, Даниил Махорт
    Оператор: Вячеслав Лисневский
    Композитор: Дарин Сысоев
    Художник: Владислав Огай, Оксана Шевченко
    В ролях: Сергей Бондарчук, Евгений Пронин, Кристина Асмус, Егор Корешков, Александр Робак, Дарья Екамасова, Сергей Сосновский, Виктор Хориняк, Джемал Тетруашвили, Кристина Шаповалова
    Бюджет: 90 000 000 руб.
    Сборы в России: $2 370 039
    Мировая премьера:
    Премьера (РФ): 18 февраля 2016, «Двадцатый Век Фокс СНГ»
    Описание: В мире их называли «Асфальтоукладчик», «Королева брусьев» и «Русская торпеда». Борец Александр Карелин, гимнастка Светлана Хоркина и пловец Александр Попов — реальные истории трех легендарных российских спортсменов, на общем счету которых 9 золотых олимпийских медалей и больше тысячи побед! У каждого был свой путь, своя уникальная драматическая история восхождения. Три яркие новеллы, основанные на реальных событиях, расскажут о том, что осталось за кадром спортивной хроники и каким был путь к высшему спортивному достижению — Олимпийский чемпион. Они стали легендами мирового спорта и дали возможность всей стране сказать «Мы победили!».-Качество исходника: WEB-DL 1080p (NNMClub)
    Качество: WEB-DL
    Тип: HD (1080p)
    Контейнер: M4V
    Видео: H.264, 1912x816, 2.35:1, 4 406 Kbps, 24.000 fps
    Аудио 1: Русский/Оригинальная дорожка , AAC / 2.0 / 157 Kbps / 48.0 KHz
    Аудио 2: Русский/Оригинальная дорожка , AC-3 / 5.1 / 384 Kbps / 48.0 KHz
    -

    iTunes Meta Tags

    Sort Name: Чемпионы: Быстрее. Выше. Сильнее
    XID: Apple:vendor_id:2016-840818
    contentID: 1090632937
    Copyright: © 2016, ООО "Энджой мувиз"
    Screenwriters: Эмиль Никогосян, Александр Маркин
    Producers: Георгий Малков, Владимир Поляков, Даниил Махорт
    Director: Артем Аксененко
    Cast: Сергей Бондарчук, Евгений Пронин, Кристина Асмус, Егор Корешков, Александр Робак, Дарья Екамасова, Сергей Сосновский, Виктор Хориняк, Джемал Тетруашвили, Кристина Шаповалова
    Studio: ООО "Энджой мувиз"
    Rating: 133
    Long Description: В мире их называли "Асфальтоукладчик", "Королева брусьев" и "Русская торпеда". Борец Александр Карелин, гимнастка Светлана Хоркина и пловец Александр Попов - реальные истории трех легендарных российских спортсменов, на общем счету которых 9 золотых олимпийских медалей и больше тысячи побед! У каждого был свой путь, своя уникальная драматическая история восхождения. Три яркие новеллы, основанные на реальных событиях, расскажут о том, что осталось за кадром спортивной хроники и каким был путь к высшему спортивному достижению - Олимпийский чемпион. Они стали легендами мирового спорта и дали возможность всей стране сказать "Мы победили!".
    Description: В мире их называли "Асфальтоукладчик", "Королева брусьев" и "Русская торпеда". Борец Александр Карелин, гимнастка Светлана Хоркина и пловец Александр Попов - реальные истории трех легендарных российских спортсменов, на общем счету которых 9 золотых олимпийских медалей и больше тысячи побед!
    Release Date: 2016-01-01T08:00:00Z
    Genre: Спорт
    Artist: Артем Аксененко
    Name: Чемпионы: Быстрее. Выше. Сильнее

    MediaInfo

    General
    Complete name : /Users/imac/HandBrake/Chempiony.WEB-DL.1080p.m4v
    Format : MPEG-4
    Codec ID : M4V  (M4V /M4A /mp42/isom)
    File size : 3.59 GiB
    Duration : 1h 43mn
    Overall bit rate mode : Variable
    Overall bit rate : 4 954 Kbps
    Movie name : Чемпионы: Быстрее. Выше. Сильнее
    Performer : Артем Аксененко
    Director : Артем Аксененко
    Actor : Сергей Бондарчук / Евгений Пронин / Кристина Асмус / Егор Корешков / Александр Робак / Дарья Екамасова / Сергей Сосновский / Виктор Хориняк / Джемал Тетруашвили / Кристина Шаповалова
    Screenplay by : Эмиль Никогосян / Александр Маркин
    Producer : Георгий Малков / Владимир Поляков / Даниил Махорт
    Production studio : ООО "Энджой мувиз"
    Genre : Спорт
    ContentType : Short Film
    Description : В мире их называли "Асфальтоукладчик", "Королева брусьев" и "Русская торпеда". Борец Александр Карелин, гимнастка Светлана Хоркина и пловец Александр Попов - реальные истории трех легендарных российских спортсменов, на общем счету которых 9 золотых олимпийских медалей и больше тысячи побед!
    Recorded date : UTC 2016-01-01 08:00:00
    Encoded date : UTC 2016-03-18 21:20:08
    Tagged date : UTC 2016-03-18 21:21:12
    Copyright : © 2016, ООО "Энджой мувиз"
    Cover : Yes
    Rating : None
    Title/Sort : Чемпионы: Быстрее. Выше. Сильнее
    LongDescription : В мире их называли "Асфальтоукладчик", "Королева брусьев" и "Русская торпеда". Борец Александр Карелин, гимнастка Светлана Хоркина и пловец Александр Попов - реальные истории трех легендарных российских спортсменов, на общем счету которых 9 золотых олимпийских медалей и больше тысячи побед! У каждого был свой путь, своя уникальная драматическая история восхождения. Три яркие новеллы, основанные на реальных событиях, расскажут о том, что осталось за кадром спортивной хроники и каким был путь к высшему спортивному достижению - Олимпийский чемпион. Они стали легендами мирового спорта и дали возможность всей стране сказать "Мы победили!".
    AppleStoreCatalogID : 1090632937
    Vendor : Apple:vendor_id:2016-840818
    ContentRating : ru-movie|6+|150|
    Video #1
    ID : 1
    Format : AVC
    Format/Info : Advanced Video Codec
    Format profile : High@L4
    Format settings, CABAC : Yes
    Format settings, ReFrames : 5 frames
    Codec ID : avc1
    Codec ID/Info : Advanced Video Coding
    Duration : 1h 43mn
    Bit rate : 4 406 Kbps
    Width : 1 912 pixels
    Height : 816 pixels
    Display aspect ratio : 2.35:1
    Frame rate mode : Variable
    Frame rate : 24.000 fps
    Minimum frame rate : 23.810 fps
    Maximum frame rate : 24.390 fps
    Color space : YUV
    Chroma subsampling : 4:2:0
    Bit depth : 8 bits
    Scan type : Progressive
    Bits/(Pixel*Frame) : 0.118
    Stream size : 3.19 GiB (89%)
    Title : Main Program
    Language : Russian
    Encoded date : UTC 2016-03-18 21:20:08
    Tagged date : UTC 2016-03-18 21:20:31
    Color range : Limited
    Color primaries : BT.709
    Transfer characteristics : BT.709
    Matrix coefficients : BT.709
    Menus : 4,5
    Video #2
    ID : 5
    Format : JPEG
    Codec ID : jpeg
    Duration : 1h 43mn
    Bit rate mode : Variable
    Bit rate : 560 bps
    Width : 640 pixels
    Height : 273 pixels
    Display aspect ratio : 2.35:1
    Frame rate mode : Variable
    Frame rate : 0.002 fps
    Minimum frame rate : 0.001 fps
    Maximum frame rate : 0.003 fps
    Color space : YUV
    Chroma subsampling : 4:2:0
    Bit depth : 8 bits
    Compression mode : Lossy
    Bits/(Pixel*Frame) : 1.603
    Stream size : 376 KiB (0%)
    Title : Chapter Images
    Language : Russian
    Default : No
    Encoded date : UTC 2016-03-18 21:20:35
    Tagged date : UTC 2016-03-18 21:20:36
    Menu For : 1
    Audio #1
    ID : 2
    Format : AAC
    Format/Info : Advanced Audio Codec
    Format profile : LC
    Codec ID : 40
    Duration : 1h 43mn
    Bit rate mode : Variable
    Bit rate : 157 Kbps
    Maximum bit rate : 229 Kbps
    Channel(s) : 2 channels
    Channel positions : Front: L R
    Sampling rate : 48.0 KHz
    Frame rate : 46.875 fps (1024 spf)
    Compression mode : Lossy
    Stream size : 116 MiB (3%)
    Title : Russian Stereo
    Language : Russian
    Default : Yes
    Alternate group : 1
    Encoded date : UTC 2016-03-18 21:20:08
    Tagged date : UTC 2016-03-18 21:20:13
    Fallback From : 3
    Audio #2
    ID : 3
    Format : AC-3
    Format/Info : Audio Coding 3
    Mode extension : CM (complete main)
    Format settings, Endianness : Big
    Codec ID : ac-3
    Duration : 1h 43mn
    Bit rate mode : Constant
    Bit rate : 384 Kbps
    Channel(s) : 6 channels
    Channel positions : Front: L C R, Side: L R, LFE
    Sampling rate : 48.0 KHz
    Frame rate : 31.250 fps (1536 spf)
    Bit depth : 16 bits
    Compression mode : Lossy
    Stream size : 285 MiB (8%)
    Title : Russian DD 5.1
    Language : Russian
    Default : Inherited From: 2
    Alternate group : 1
    Encoded date : UTC 2016-03-18 21:20:08
    Tagged date : UTC 2016-03-18 21:20:31
    Fallback To : 2
    Menu #1
    00:00:00.000 : 1
    00:10:45.000 : 2
    00:19:41.000 : 3
    00:29:17.000 : 4
    00:39:54.000 : 5
    00:50:04.000 : 6
    01:00:10.000 : 7
    01:09:03.000 : 8
    01:17:32.000 : 9
    01:27:18.999 : 10
    01:38:58.000 : 11
    Menu #2
    ID : 4
    Codec ID : text
    Duration : 1h 43mn
    Language : Russian
    Encoded date : UTC 2016-03-18 21:20:31
    Tagged date : UTC 2016-03-18 21:20:31
    Menu For : 1
    00:00:00.000 : 1
    00:10:45.000 : 2
    00:19:41.000 : 3
    00:29:17.000 : 4
    00:39:54.000 : 5
    00:50:04.000 : 6
    01:00:10.000 : 7
    01:09:03.000 : 8
    01:17:32.000 : 9
    01:27:18.999 : 10
    01:38:58.000 : 11
    Bit rate mode : VBR

    Скриншоты

    -

    Релиз подготовлен для просмотра на Apple TV, iPad, iPhone, iPod Touch.
    Для просмотра данного релиза на компьютере с ОС Windows рекомендуется использовать VLC media player
    Скачать .torrent

    Скачать торрент-файл бесплатно и на максимальной скорости!

    Как скачивать? · Что такое торрент? · Рейтинг и ограничения

    !ВНИМАНИЕ!
    Сайт не распространяет и не хранит электронные версии произведений, а занимается лишь лишь предоставлением доступа к создаваемому пользователями каталогу ссылок на торрент-файлы, которые содержат только списки хеш-сумм, убедительная просьба с жалобами обращаться напрямую к пользователю. Файлы для обмена на трекере предоставлены пользователями сайта, и администрация не несёт ответственности за их содержание. Просьба не заливать файлы, защищенные авторскими правами, а также файлы нелегального содержания!


    _________________
    [Профиль] [ЛС]
    Показать сообщения:    
    Ответить на тему

    Текущее время: Сегодня, в 20:03

    Часовой пояс: GMT + 2



    Вы не можете начинать темы
    Вы не можете отвечать на сообщения
    Вы не можете редактировать свои сообщения
    Вы не можете удалять свои сообщения
    Вы не можете голосовать в опросах
    Вы не можете прикреплять файлы к сообщениям
    Вы не можете скачивать файлы