BitTorrentTracker PerecTracker.org
BitTorrentTracker PerecTracker.org
    
Регистрация  ·  Вход
 
 · 
Забыли пароль?

  • Город монстров / Tales of Halloween (Даррен Линн Боусман / Darren Lynn Bousman, Адам Гираш / Adam Gierasch, Нил Маршалл / Neil Marshall) [2015, США, ужасы, HDRip] Dub (iTunes)

    Ответить на тему
     
    Автор Сообщение

    Light

    Создавать темы 18-Мар-2016 22:44

           

    [Цитировать]

    Город монстров / Tales of Halloween
    Страна: США
    Жанр: ужасы
    Год выпуска: 2015
    Продолжительность: 01:37:15
    Перевод: Профессиональный (дублированный) iTunes
    Cубтитры: нет
    Оригинальная аудиодорожка: нет
    Режиссер: Даррен Линн Боусман / Darren Lynn Bousman, Адам Гираш / Adam Gierasch, Нил Маршалл / Neil Marshall
    В ролях: Эдриенн Барбо, Хантер Смит, Камерон Истон, Кэролин Уильямс, Роберт Раслер, Клэр Крамер, Грег Гранберг, Дэниэл ДиМаджио, Остин Фальк, Мэдисон Исман
    Описание: Десять историй, объединенные одной общей темой Хэллоуина, переплетаются вместе в американском пригороде, где упыри, черти, пришельцы и убийцы с топором появляются только в течение одной ночи, чтобы терроризировать ничего не подозревающих жителей.
    Сэмпл: http://multi-up.com/1093587
    Качество видео: HDRip (исходник не известен)
    Формат видео: AVI
    Видео: Xvid 720x304 24fps 1 736 Kbps
    Аудио: Dolby AC3 48000Hz 6ch 384kbps

    MediaInfo

    Format : AVI
    Format/Info : Audio Video Interleave
    File size : 1.45 GiB
    Duration : 1h 37mn
    Overall bit rate : 2 129 Kbps
    Writing application : VirtualDubModRus 1.5.10.2 (build 2542/release)
    Writing library : VirtualDubMod build 2542/release
    Video
    ID : 0
    Format : MPEG-4 Visual
    Format profile : Advanced Simple@L5
    Format settings, BVOP : Yes
    Format settings, QPel : No
    Format settings, GMC : No warppoints
    Format settings, Matrix : Custom
    Codec ID : XVID
    Codec ID/Hint : XviD
    Duration : 1h 37mn
    Bit rate : 1 736 Kbps
    Width : 720 pixels
    Height : 304 pixels
    Display aspect ratio : 2.35:1
    Frame rate : 24.000 fps
    Color space : YUV
    Chroma subsampling : 4:2:0
    Bit depth : 8 bits
    Scan type : Progressive
    Compression mode : Lossy
    Bits/(Pixel*Frame) : 0.330
    Stream size : 1.18 GiB (82%)
    Writing library : XviD 73
    Audio
    ID : 1
    Format : AC-3
    Format/Info : Audio Coding 3
    Mode extension : CM (complete main)
    Format settings, Endianness : Big
    Codec ID : 2000
    Duration : 1h 37mn
    Bit rate mode : Constant
    Bit rate : 384 Kbps
    Channel count : 6 channels
    Channel positions : Front: L C R, Side: L R, LFE
    Sampling rate : 48.0 KHz
    Bit depth : 16 bits
    Compression mode : Lossy
    Stream size : 267 MiB (18%)
    Alignment : Split accross interleaves
    Interleave, duration : 42 ms (1.00 video frame)
    Interleave, preload duration : 500 ms

    Скриншот c названием фильма

    Скриншоты

    Скачать .torrent

    Скачать торрент-файл бесплатно и на максимальной скорости!

    Как скачивать? · Что такое торрент? · Рейтинг и ограничения

    !ВНИМАНИЕ!
    Сайт не распространяет и не хранит электронные версии произведений, а занимается лишь лишь предоставлением доступа к создаваемому пользователями каталогу ссылок на торрент-файлы, которые содержат только списки хеш-сумм, убедительная просьба с жалобами обращаться напрямую к пользователю. Файлы для обмена на трекере предоставлены пользователями сайта, и администрация не несёт ответственности за их содержание. Просьба не заливать файлы, защищенные авторскими правами, а также файлы нелегального содержания!


    _________________
    [Профиль] [ЛС]
    Показать сообщения:    
    Ответить на тему

    Текущее время: Сегодня, в 05:13

    Часовой пояс: GMT + 2



    Вы не можете начинать темы
    Вы не можете отвечать на сообщения
    Вы не можете редактировать свои сообщения
    Вы не можете удалять свои сообщения
    Вы не можете голосовать в опросах
    Вы не можете прикреплять файлы к сообщениям
    Вы не можете скачивать файлы