BitTorrentTracker PerecTracker.org
BitTorrentTracker PerecTracker.org
    
Регистрация  ·  Вход
 
 · 
Забыли пароль?

  • По ту сторону двери / The Other Side of the Door (Йоханнес Робертс / Johannes Roberts) [2016, Индия, Великобритания, Триллер, Ужасы, CamRip]

    Ответить на тему
     
    Автор Сообщение

    rechyn

    Создавать темы 18-Мар-2016 20:36

           

    [Цитировать]

    По ту сторону двери / The Other Side of the Door-Производство: Индия, Великобритания
    Год выпуска: 2016
    Жанр: Триллер, Ужасы
    Продолжительность: 01:30:54
    Перевод: Дублированный
    Субтитры: Отсутствуют
    Режиссер: Йоханнес Робертс / Johannes Roberts
    Продюсер: Рори Аиткен, Александр Ажа, Бен Паг
    Актеры: Сара Уэйн Кэллис, Джереми Систо, София Росински, Хавьер Ботет, Джакс Малкольм, Сучитра Пиллай-Малик
    Описание:
    Идиллическая жизнь молодой семьи за границей трагически прерывается гибелью маленького сына. Безутешная мать узнает о существовании древнего ритуала, который позволяет на время вернуть умерших, чтобы с ними попрощаться. Девушка отправляется в заброшенный храм, где двери служат порталом между мирами живых и мертвых, но пренебрегает предупреждением не открывать эти таинственные врата. И теперь никто не знает, что станет с нашим миром после нарушения баланса жизни и смерти.

    Возраст: 18+ (зрителям, достигшим 18 лет. запрещено для детей)
    Рейтинг MPAA: R (лицам до 17 лет обязательно присутствие взрослого)
    Дата мировой премьеры: 24 февраля 2016
    Дата премьеры в России: 25 февраля 2016, «Двадцатый Век Фокс СНГ»

    Семпл
    Качество видео: CamRip
    Формат видео: AVI
    Формат аудио: MP3
    Видео: Xvid, 720x400, ~2009 kbps
    Аудио: MP3, 2 ch, 128 kbps, CBR

    Mediainfo:

    Общее
    Полное имя                               : D:\KINO 3\MARTELLO\Po.Tu.Storony.Dveri.avi
    Формат                                   : AVI
    Формат/Информация                        : Audio Video Interleave
    Размер файла                             : 1,36 Гбайт
    Продолжительность                        : 1 ч. 30 м.
    Общий поток                              : 2148 Кбит/сек
    Программа кодирования                    : VirtualDubMod 1.5.10.2 (build 2540/release)
    Библиотека кодирования                   : VirtualDubMod build 2540/release
    Видео
    Идентификатор                            : 0
    Формат                                   : MPEG-4 Visual
    Профиль формата                          : Advanced Simple@L5
    Параметр BVOP формата                    : 2
    Параметр QPel формата                    : Нет
    Параметр GMC формата                     : Без точки перехода
    Параметр матрицы формата                 : Default (MPEG)
    Идентификатор кодека                     : XVID
    Идентификатор кодека/Подсказка           : XviD
    Продолжительность                        : 1 ч. 30 м.
    Битрейт                                  : 2009 Кбит/сек
    Ширина                                   : 720 пикселей
    Высота                                   : 400 пикселей
    Соотношение сторон                       : 16:9
    Частота кадров                           : 29,970 (30000/1001) кадров/сек
    Цветовое пространство                    : YUV
    Субдискретизация насыщенности            : 4:2:0
    Битовая глубина                          : 8 бит
    Тип развёртки                            : Прогрессивная
    Метод сжатия                             : С потерями
    Бит/(Пиксели*Кадры)                      : 0.233
    Размер потока                            : 1,28 Гбайт (94%)
    Библиотека кодирования                   : XviD 1.2.1 (UTC 2008-12-04)
    Аудио
    Идентификатор                            : 1
    Формат                                   : MPEG Audio
    Версия формата                           : Version 1
    Профиль формата                          : Layer 3
    Идентификатор кодека                     : 55
    Идентификатор кодека/Подсказка           : MP3
    Продолжительность                        : 1 ч. 30 м.
    Вид битрейта                             : Постоянный
    Битрейт                                  : 128 Кбит/сек
    Каналы                                   : 2 канала
    Частота                                  : 48,0 КГц
    Метод сжатия                             : С потерями
    Размер потока                            : 83,2 Мбайт (6%)
    Выравнивание                             : Соединение по промежуткам
    Продолжительность промежутка             : 33  мс. (1,00 видеокадр)
    Время предзагрузки промежутка            : 504  мс.
    Библиотека кодирования                   : LAME3.98r
    Настройки программы                      : -m s -V 4 -q 2 -lowpass 17 -b 128

    Скриншоты:
    Скачать .torrent

    Скачать торрент-файл бесплатно и на максимальной скорости!

    Как скачивать? · Что такое торрент? · Рейтинг и ограничения

    !ВНИМАНИЕ!
    Сайт не распространяет и не хранит электронные версии произведений, а занимается лишь лишь предоставлением доступа к создаваемому пользователями каталогу ссылок на торрент-файлы, которые содержат только списки хеш-сумм, убедительная просьба с жалобами обращаться напрямую к пользователю. Файлы для обмена на трекере предоставлены пользователями сайта, и администрация не несёт ответственности за их содержание. Просьба не заливать файлы, защищенные авторскими правами, а также файлы нелегального содержания!


    _________________
    [Профиль] [ЛС]
    Показать сообщения:    
    Ответить на тему

    Текущее время: Сегодня, в 01:56

    Часовой пояс: GMT + 2



    Вы не можете начинать темы
    Вы не можете отвечать на сообщения
    Вы не можете редактировать свои сообщения
    Вы не можете удалять свои сообщения
    Вы не можете голосовать в опросах
    Вы не можете прикреплять файлы к сообщениям
    Вы не можете скачивать файлы