BitTorrentTracker PerecTracker.org
BitTorrentTracker PerecTracker.org
    
Регистрация  ·  Вход
 
 · 
Забыли пароль?

  • Хинтерланд / Hinterland / Сезон: 2 / Серии: 1-4 из 4 (Ed Thomas) [2015, детектив, драма, HDTVRip] DVO (Levelin)

    Ответить на тему
     
    Автор Сообщение

    rechyn

    Создавать темы 18-Мар-2016 20:08

           

    [Цитировать]

    --Хинтерланд / Hinterland--Год выпуска: 2015
    Страна: Великобритания
    Жанр: детектив, драма
    Продолжительность: ~90min
    Перевод: Профессиональный двухголосый закадровый [Levelin]-Режиссёр: Ed Thomas
    В ролях: Ричард Харрингтон, Мали Харрис, Ханна Даниэль, Алекс Харрис, Анейрин Хьюз-Описание: Инспектор Том Матиас расследует запутанные преступления в глуши Уэльса. Действие начинается после событий, в результате которых главный герой пережил сильный личностный кризис. Однако, он вынужден вернуться на работу и принять участие в очередном расследовании.-Роли озвучивали:
    - Ариса Лебедева
    - Семён Ващенко--Предыдущие и альтернативные раздачи- -Качество: HDTV 720
    Формат: MKV
    Видео: MPEG4 AVC, 1280x720, 16:9, 25.000 fps, 3 500 Kbps
    Аудио: AC-3, 48.0 KHz, 192 Kbps, 2 channels [Levelin]
    Субтитры: отсутствуют

    MediaInfo

    Format : Matroska
    Format version : Version 4 / Version 2
    File size : 1.55 GiB
    Duration : 1h 29mn
    Overall bit rate mode : Variable
    Overall bit rate : 2 492 Kbps
    Encoded date : UTC 2016-02-12 15:54:11
    Writing application : mkvmerge v8.3.0 ('Over the Horizon') 64bit
    Writing library : libebml v1.3.1 + libmatroska v1.4.2
    DURATION : 01:29:08.320000000
    NUMBER_OF_FRAMES : 167135
    NUMBER_OF_BYTES : 128359680
    _STATISTICS_WRITING_APP : mkvmerge v8.3.0 ('Over the Horizon') 64bit
    _STATISTICS_WRITING_DATE_UT : 2016-02-12 15:54:11
    _STATISTICS_TAGS : BPS DURATION NUMBER_OF_FRAMES NUMBER_OF_BYTES
    Video
    ID : 1
    Format : AVC
    Format/Info : Advanced Video Codec
    Format profile : High@L4.1
    Format settings, CABAC : Yes
    Format settings, ReFrames : 2 frames
    Codec ID : V_MPEG4/ISO/AVC
    Duration : 1h 29mn
    Bit rate mode : Variable
    Bit rate : 2 251 Kbps
    Maximum bit rate : 3 500 Kbps
    Width : 1 280 pixels
    Height : 720 pixels
    Display aspect ratio : 16:9
    Frame rate mode : Constant
    Frame rate : 25.000 fps
    Color space : YUV
    Chroma subsampling : 4:2:0
    Bit depth : 8 bits
    Scan type : Progressive
    Bits/(Pixel*Frame) : 0.098
    Stream size : 1.40 GiB (90%)
    Default : Yes
    Forced : No
    Audio
    ID : 2
    Format : AC-3
    Format/Info : Audio Coding 3
    Mode extension : CM (complete main)
    Format settings, Endianness : Big
    Codec ID : A_AC3
    Duration : 1h 29mn
    Bit rate mode : Constant
    Bit rate : 192 Kbps
    Channel(s) : 2 channels
    Channel positions : Front: L R
    Sampling rate : 48.0 KHz
    Compression mode : Lossy
    Delay relative to video : -40ms
    Stream size : 122 MiB (8%)
    Title : Levelin
    Language : Russian
    Default : Yes
    Forced : Yes

    Скриншоты

    Скачать .torrent

    Скачать торрент-файл бесплатно и на максимальной скорости!

    Как скачивать? · Что такое торрент? · Рейтинг и ограничения

    !ВНИМАНИЕ!
    Сайт не распространяет и не хранит электронные версии произведений, а занимается лишь лишь предоставлением доступа к создаваемому пользователями каталогу ссылок на торрент-файлы, которые содержат только списки хеш-сумм, убедительная просьба с жалобами обращаться напрямую к пользователю. Файлы для обмена на трекере предоставлены пользователями сайта, и администрация не несёт ответственности за их содержание. Просьба не заливать файлы, защищенные авторскими правами, а также файлы нелегального содержания!


    _________________
    [Профиль] [ЛС]
    Показать сообщения:    
    Ответить на тему

    Текущее время: Сегодня, в 01:13

    Часовой пояс: GMT + 2



    Вы не можете начинать темы
    Вы не можете отвечать на сообщения
    Вы не можете редактировать свои сообщения
    Вы не можете удалять свои сообщения
    Вы не можете голосовать в опросах
    Вы не можете прикреплять файлы к сообщениям
    Вы не можете скачивать файлы