BitTorrentTracker PerecTracker.org
BitTorrentTracker PerecTracker.org
    
Регистрация  ·  Вход
 
 · 
Забыли пароль?

  • Ужастики / Goosebumps (Роб Леттерман / Rob Letterman) [2015, США, Австралия, фэнтези, комедия, приключения, BDRip-AVC] Dub (Rus, Ukr Blu-ray CEE) + Original (Eng) + Sub (Rus, Ukr, Eng)

    Ответить на тему
     
    Автор Сообщение

    Light

    Создавать темы 18-Мар-2016 18:32

           

    [Цитировать]

    Ужастики
    Goosebumps
    «The stories are alive»
    -Страна: США, Австралия
    Жанр: фэнтези, комедия, приключения
    Год выпуска: 2015
    Продолжительность: 01:43:16
    Перевод: Профессиональный (полное дублирование) RUS Лицензия Blu-ray CEE
    Перевод 2: Профессиональный (полное дублирование) Ukr Лицензия Blu-ray CEE
    Субтитры: Русские (форсированные, полные), украинские (форсированные, полные), английские (полные, SDH)
    Оригинальная аудиодорожка: Английский
    Режиссер: Роб Леттерман / Rob Letterman
    В ролях: Дилан Миннетт, Одейя Раш, Эми Райан, Райан Ли, Джиллиан Белл, Джек Блэк, Кен Марино, Холстон Сейдж, Стивен Крюгер, Кит А. Болден, Аманда Ланд, Тимоти С. Саймонс-ОписаниеКошмары бывают разные. Вечно голодные оборотни, плохо воспитанные зомби, агрессивные садовые гномы и даже гигантский неуравновешенный снежный человек...
    Все эти фантастические монстры и монстрики многие годы магическим образом удерживались на страницах знаменитых бестселлеров «Ужастики», пока по воле случая их не выпустили на свободу в реальный мир.
    -Сэмпл

    Качество видео: BDRip-AVC [HDCLUB / Blu-ray Remux / 1080p]
    Формат видео: MKV
    Видео кодек: AVC
    Аудио кодек: AC3
    Видео: AVC 2921 Kbps 1136 x 476 (2.387) 23.976 fps
    Аудио #1: Russian, 448 Кбит/сек, 48,0 КГц, 6 каналов, AC-3
    Аудио #2: Ukr, 448 Кбит/сек, 48,0 КГц, 6 каналов, AC-3
    Аудио #3: English, 448 Кбит/сек, 48,0 КГц, 6 каналов, AC-3
    Навигация по главам: есть
    MediaInfo | Log

    Log

    x264 [info]: frame I:1422 Avg QP:13.84 size: 72189
    x264 [info]: frame P:36324 Avg QP:15.63 size: 30947
    x264 [info]: frame B:110814 Avg QP:18.27 size: 9934
    x264 [info]: consecutive B-frames: 3.3% 4.6% 10.5% 30.0% 17.2% 24.3% 4.4% 3.3% 1.0% 0.4% 0.3% 0.4% 0.2%
    x264 [info]: mb I I16..4: 5.9% 79.9% 14.3%
    x264 [info]: mb P I16..4: 1.4% 18.3% 1.9% P16..4: 25.4% 35.2% 13.4% 2.5% 0.2% skip: 1.8%
    x264 [info]: mb B I16..4: 0.2% 1.8% 0.2% B16..8: 34.9% 25.1% 4.6% direct: 5.4% skip:27.8% L0:41.9% L1:45.5% BI:12.6%
    x264 [info]: 8x8 transform intra:84.1% inter:59.7%
    x264 [info]: direct mvs spatial:100.0% temporal:0.0%
    x264 [info]: coded y,uvDC,uvAC intra: 90.5% 92.1% 80.9% inter: 25.0% 25.2% 9.9%
    x264 [info]: i16 v,h,dc,p: 25% 13% 4% 58%
    x264 [info]: i8 v,h,dc,ddl,ddr,vr,hd,vl,hu: 10% 8% 8% 9% 13% 13% 13% 12% 14%
    x264 [info]: i4 v,h,dc,ddl,ddr,vr,hd,vl,hu: 11% 8% 5% 9% 15% 14% 13% 11% 13%
    x264 [info]: i8c dc,h,v,p: 47% 20% 16% 17%
    x264 [info]: Weighted P-Frames: Y:8.1% UV:6.1%
    x264 [info]: ref P L0: 47.9% 8.5% 17.3% 6.6% 5.5% 4.1% 3.4% 1.8% 1.6% 1.4% 1.6% 0.4% 0.0%
    x264 [info]: ref B L0: 75.3% 11.5% 5.0% 2.6% 1.7% 1.4% 1.1% 0.7% 0.4% 0.2%
    x264 [info]: ref B L1: 93.5% 6.5%
    x264 [info]: kb/s:3005.16
    x264 [total]: encoded 148560 frames, 8.57 fps, 3005.16 kb/s, duration 4:48:54.59
    Format : Matroska
    Format version : Version 4 / Version 2
    File size : 3.14 GiB
    Duration : 1h 43mn
    Overall bit rate : 4 352 Kbps
    Encoded date : UTC 2016-03-18 06:18:28
    Writing application : mkvmerge v6.7.0 ('Back to the Ground') 32bit built on Jan 8 2014 15:03:17
    Writing library : libebml v1.3.0 + libmatroska v1.4.1
    Video
    ID : 1
    Format : AVC
    Format/Info : Advanced Video Codec
    Format profile : High@L4.1
    Format settings, CABAC : Yes
    Format settings, ReFrames : 11 frames
    Codec ID : V_MPEG4/ISO/AVC
    Duration : 1h 43mn
    Bit rate : 2 921 Kbps
    Width : 1 136 pixels
    Height : 476 pixels
    Display aspect ratio : 2.40:1
    Frame rate mode : Constant
    Frame rate : 23.976 (24000/1001) fps
    Color space : YUV
    Chroma subsampling : 4:2:0
    Bit depth : 8 bits
    Scan type : Progressive
    Bits/(Pixel*Frame) : 0.225
    Stream size : 2.11 GiB (67%)
    Title : Goosebumps (2015) [perectracker.org]
    Writing library : x264 core 148 r2638kMod 7599210
    Encoding settings : cabac=1 / ref=11 / deblock=1:-2:-2 / analyse=0x3:0x133 / me=umh / subme=11 / psy=1 / fade_compensate=0.00 / psy_rd=1.00:0.05 / mixed_ref=1 / me_range=48 / chroma_me=1 / trellis=2 / 8x8dct=1 / cqm=0 / deadzone=21,11 / fast_pskip=0 / chroma_qp_offset=-3 / threads=12 / lookahead_threads=3 / sliced_threads=0 / nr=0 / decimate=1 / interlaced=0 / bluray_compat=0 / constrained_intra=0 / fgo=0 / bframes=12 / b_pyramid=2 / b_adapt=2 / b_bias=0 / direct=3 / weightb=1 / open_gop=0 / weightp=2 / keyint=250 / keyint_min=23 / scenecut=40 / intra_refresh=0 / rc_lookahead=60 / rc=crf / mbtree=0 / crf=17.2000 / qcomp=0.60 / qpmin=0 / qpmax=69 / qpstep=4 / vbv_maxrate=50000 / vbv_bufsize=62500 / crf_max=0.0 / nal_hrd=none / filler=0 / ip_ratio=1.40 / pb_ratio=1.30 / aq=3:0.90
    Language : English
    Default : Yes
    Forced : No
    Audio #1
    ID : 2
    Format : AC-3
    Format/Info : Audio Coding 3
    Mode extension : CM (complete main)
    Format settings, Endianness : Big
    Codec ID : A_AC3
    Duration : 1h 43mn
    Bit rate mode : Constant
    Bit rate : 448 Kbps
    Channel(s) : 6 channels
    Channel positions : Front: L C R, Side: L R, LFE
    Sampling rate : 48.0 KHz
    Frame rate : 31.250 fps (1536 spf)
    Compression mode : Lossy
    Stream size : 331 MiB (10%)
    Title : Blu-ray CEE
    Language : Russian
    Default : Yes
    Forced : No
    Audio #2
    ID : 3
    Format : AC-3
    Format/Info : Audio Coding 3
    Mode extension : CM (complete main)
    Format settings, Endianness : Big
    Codec ID : A_AC3
    Duration : 1h 43mn
    Bit rate mode : Constant
    Bit rate : 448 Kbps
    Channel(s) : 6 channels
    Channel positions : Front: L C R, Side: L R, LFE
    Sampling rate : 48.0 KHz
    Frame rate : 31.250 fps (1536 spf)
    Compression mode : Lossy
    Stream size : 331 MiB (10%)
    Title : Blu-ray CEE
    Language : Ukrainian
    Default : No
    Forced : No
    Audio #3
    ID : 4
    Format : AC-3
    Format/Info : Audio Coding 3
    Mode extension : CM (complete main)
    Format settings, Endianness : Big
    Codec ID : A_AC3
    Duration : 1h 43mn
    Bit rate mode : Constant
    Bit rate : 448 Kbps
    Channel(s) : 6 channels
    Channel positions : Front: L C R, Side: L R, LFE
    Sampling rate : 48.0 KHz
    Frame rate : 31.250 fps (1536 spf)
    Compression mode : Lossy
    Stream size : 331 MiB (10%)
    Title : Original
    Language : English
    Default : No
    Forced : No
    Text #1
    ID : 5
    Format : UTF-8
    Codec ID : S_TEXT/UTF8
    Codec ID/Info : UTF-8 Plain Text
    Title : Forced
    Language : Russian
    Default : Yes
    Forced : No
    Text #2
    ID : 6
    Format : UTF-8
    Codec ID : S_TEXT/UTF8
    Codec ID/Info : UTF-8 Plain Text
    Title : Full
    Language : Russian
    Default : No
    Forced : No
    Text #3
    ID : 7
    Format : UTF-8
    Codec ID : S_TEXT/UTF8
    Codec ID/Info : UTF-8 Plain Text
    Title : Forced
    Language : Ukrainian
    Default : No
    Forced : No
    Text #4
    ID : 8
    Format : UTF-8
    Codec ID : S_TEXT/UTF8
    Codec ID/Info : UTF-8 Plain Text
    Title : Full
    Language : Ukrainian
    Default : No
    Forced : No
    Text #5
    ID : 9
    Format : UTF-8
    Codec ID : S_TEXT/UTF8
    Codec ID/Info : UTF-8 Plain Text
    Title : Full
    Language : English
    Default : No
    Forced : No
    Text #6
    ID : 10
    Format : UTF-8
    Codec ID : S_TEXT/UTF8
    Codec ID/Info : UTF-8 Plain Text
    Title : SDH
    Language : English
    Default : No
    Forced : No
    Menu
    00:00:00.000 : en:Chapter 1
    00:08:09.697 : en:Chapter 2
    00:11:45.955 : en:Chapter 3
    00:17:54.030 : en:Chapter 4
    00:21:52.853 : en:Chapter 5
    00:27:57.842 : en:Chapter 6
    00:32:40.290 : en:Chapter 7
    00:38:29.849 : en:Chapter 8
    00:44:37.007 : en:Chapter 9
    00:52:01.451 : en:Chapter 10
    00:58:12.947 : en:Chapter 11
    01:03:40.608 : en:Chapter 12
    01:09:56.317 : en:Chapter 13
    01:16:40.761 : en:Chapter 14
    01:22:55.220 : en:Chapter 15
    01:31:13.091 : en:Chapter 16

    Скриншоты




    Скачать .torrent

    Скачать торрент-файл бесплатно и на максимальной скорости!

    Как скачивать? · Что такое торрент? · Рейтинг и ограничения

    !ВНИМАНИЕ!
    Сайт не распространяет и не хранит электронные версии произведений, а занимается лишь лишь предоставлением доступа к создаваемому пользователями каталогу ссылок на торрент-файлы, которые содержат только списки хеш-сумм, убедительная просьба с жалобами обращаться напрямую к пользователю. Файлы для обмена на трекере предоставлены пользователями сайта, и администрация не несёт ответственности за их содержание. Просьба не заливать файлы, защищенные авторскими правами, а также файлы нелегального содержания!


    _________________
    [Профиль] [ЛС]
    Показать сообщения:    
    Ответить на тему

    Текущее время: Сегодня, в 23:16

    Часовой пояс: GMT + 2



    Вы не можете начинать темы
    Вы не можете отвечать на сообщения
    Вы не можете редактировать свои сообщения
    Вы не можете удалять свои сообщения
    Вы не можете голосовать в опросах
    Вы не можете прикреплять файлы к сообщениям
    Вы не можете скачивать файлы