BitTorrentTracker PerecTracker.org
BitTorrentTracker PerecTracker.org
    
Регистрация  ·  Вход
 
 · 
Забыли пароль?

  • Хороший динозавр / The Good Dinosaur (Питер Сон / Peter Sohn ) [2015, США, Мультфильм, фэнтези, комедия, приключения, семейный, BDRip, HD (720p)] DUB + Original + sub (rus, eng)

    Ответить на тему
     
    Автор Сообщение

    Flirldrerve

    Создавать темы 18-Мар-2016 18:32

           

    [Цитировать]

    Хороший динозавр / The Good Dinosaur
    «Tiny but tough»
    7.209 / 10 6.90 / 10
    -Год выпуска: 2015
    Страна: США
    Жанр: Мультфильм, фэнтези, комедия, приключения, семейный
    Продолжительность: 1:33:38
    Перевод: Дублированный (iTunes)
    Оригинальная аудиодорожка: Есть
    Cубтитры: Русские, Английские
    Режиссёр: Питер Сон
    Сценарий: Боб Питерсон, Мэг ЛеФов, Питер Сон
    Продюсер: Денис Рим, Мэри Элис Драмм, Джон Лассетер
    Композитор: Джефф Дэнна, Майкл Дэнна
    Художник: Харли Джессуп
    Монтаж: Стефен Шаффер
    В ролях: Джеффри Райт, Фрэнсис МакДорманд, Малиа Нипай-Падилья, Райан Типл, Джек МакГроу, Маркус Скрибнер, Рэймонд Очоа, Джек Брайт, Питер Сон, Стив Зан
    Сборы в США: $122 728 399
    Сборы в мире: + $194 812 000 = $317 540 399
    Сборы в России: $4 864 035
    Мировая премьера: 10 ноября 2015
    Премьера (РФ): 26 ноября 2015, «WDSSPR»
    Релиз на DVD: 22 марта 2016, «Уолт Дисней Компани СНГ»
    Релиз на Blu-Ray: 22 марта 2016, «Уолт Дисней Компани СНГ»
    Описание: По сюжету динозавры не вымерли, а эволюционировали в разумных существ и живут и здравствуют на Земле. А вот люди остались на довольно примитивной стадии развития. Фильм расскажет историю дружбы динозавра и маленького мальчика.-Качество исходника: Blu-Ray (BlueBird)
    Качество: BDRip
    Тип: HD (720p)
    Контейнер: M4V
    Видео: H.264, 1280x544, 2.35:1, 4 500 Kbps, 23.976 (24000/1001) fps
    Аудио 1: Русский/Дублированный (iTunes), AAC / 2.0 / 157 Kbps / 48.0 KHz
    Аудио 2: Английский/Оригинальная дорожка , AAC / 2.0 / 158 Kbps / 48.0 KHz
    Аудио 3: Русский/Дублированный (iTunes), AC-3 / 5.1 / 384 Kbps / 48.0 KHz
    Аудио 4: Английский/Оригинальная дорожка , AC-3 / 5.1 / 640 Kbps / 48.0 KHz
    Субтитры 1: Русские полные
    Субтитры 2: Английские полные
    -

    iTunes Meta Tags

    Sort Name: Good Dinosaur
    XID: Apple:vendor_id:2015-596451
    contentID: 1057860639
    Copyright: © 2015 Disney Enterprises, Inc./Pixar
    Screenwriters: Мэг ЛеФов, Питер Сон, Эрик Бенсон
    Producers: Денис Рим, Джон Лассетер
    Director: Питер Сон
    Cast: Джеффри Райт, Фрэнсис МакДорманд, Малиа Нипай-Падилья, Райан Типл, Джек МакГроу, Маркус Скрибнер, Рэймонд Очоа, Джек Брайт, Питер Сон, Стив Зан
    Studio: Pixar
    Rating: 3
    Long Description: По сюжету динозавры не вымерли, а эволюционировали в разумных существ и живут и здравствуют на Земле. А вот люди остались на довольно примитивной стадии развития. Фильм расскажет историю дружбы динозавра и маленького мальчика.
    Description: По сюжету динозавры не вымерли, а эволюционировали в разумных существ и живут и здравствуют на Земле. А вот люди остались на довольно примитивной стадии развития. Фильм расскажет историю дружбы динозавра и маленького мальчика.
    Release Date: 2015-11-10T08:00:00Z
    Genre: Kids & Family
    Artist: Peter Sohn
    Name: The Good Dinosaur

    MediaInfo

    General
    Complete name : /Users/imac/HandBrake/The Good Dinosaur (720p HD).m4v
    Format : MPEG-4
    Codec ID : M4V  (M4V /M4A /mp42/isom)
    File size : 3.82 GiB
    Duration : 1h 33mn
    Overall bit rate mode : Variable
    Overall bit rate : 5 835 Kbps
    Movie name : The Good Dinosaur
    Performer : Peter Sohn
    Director : Питер Сон
    Actor : Джеффри Райт / Фрэнсис МакДорманд / Малиа Нипай-Падилья / Райан Типл / Джек МакГроу / Маркус Скрибнер / Рэймонд Очоа / Джек Брайт / Питер Сон / Стив Зан
    Screenplay by : Мэг ЛеФов / Питер Сон / Эрик Бенсон
    Producer : Денис Рим / Джон Лассетер
    Production studio : Pixar
    Genre : Kids & Family
    ContentType : Short Film
    Description : По сюжету динозавры не вымерли, а эволюционировали в разумных существ и живут и здравствуют на Земле. А вот люди остались на довольно примитивной стадии развития. Фильм расскажет историю дружбы динозавра и маленького мальчика.
    Recorded date : UTC 2015-11-10 08:00:00
    Encoded date : UTC 2016-03-18 11:54:01
    Tagged date : UTC 2016-03-18 11:55:20
    Copyright : © 2015 Disney Enterprises, Inc./Pixar
    Cover : Yes
    Rating : None
    Title/Sort : Good Dinosaur
    LongDescription : По сюжету динозавры не вымерли, а эволюционировали в разумных существ и живут и здравствуют на Земле. А вот люди остались на довольно примитивной стадии развития. Фильм расскажет историю дружбы динозавра и маленького мальчика.
    HDVideo : Yes
    AppleStoreCatalogID : 1057860639
    Vendor : Apple:vendor_id:2015-596451
    ContentRating : mpaa|PG|200|
    Video #1
    ID : 1
    Format : AVC
    Format/Info : Advanced Video Codec
    Format profile : High@L3.1
    Format settings, CABAC : No
    Format settings, ReFrames : 3 frames
    Codec ID : avc1
    Codec ID/Info : Advanced Video Coding
    Duration : 1h 33mn
    Source duration : 1h 33mn
    Bit rate : 4 500 Kbps
    Width : 1 280 pixels
    Height : 544 pixels
    Display aspect ratio : 2.35:1
    Frame rate mode : Variable
    Frame rate : 23.976 (24000/1001) fps
    Minimum frame rate : 23.974 fps
    Maximum frame rate : 23.981 fps
    Color space : YUV
    Chroma subsampling : 4:2:0
    Bit depth : 8 bits
    Scan type : Progressive
    Bits/(Pixel*Frame) : 0.270
    Stream size : 2.94 GiB (77%)
    Source stream size : 2.94 GiB (77%)
    Title : Main Program
    Writing library : x264 core 142 r2479 dd79a61
    Encoding settings : cabac=0 / ref=3 / deblock=1:-3:-3 / analyse=0x3:0x113 / me=umh / subme=9 / psy=1 / psy_rd=1.00:0.15 / mixed_ref=1 / me_range=32 / chroma_me=1 / trellis=0 / 8x8dct=1 / cqm=0 / deadzone=21,11 / fast_pskip=0 / chroma_qp_offset=-2 / threads=36 / lookahead_threads=3 / sliced_threads=0 / nr=0 / decimate=0 / interlaced=0 / bluray_compat=0 / constrained_intra=0 / bframes=3 / b_pyramid=0 / b_adapt=2 / b_bias=0 / direct=1 / weightb=0 / open_gop=0 / weightp=0 / keyint=240 / keyint_min=24 / scenecut=40 / intra_refresh=0 / rc_lookahead=40 / rc=2pass / mbtree=1 / bitrate=4500 / ratetol=1.0 / qcomp=0.65 / qpmin=0 / qpmax=69 / qpstep=4 / cplxblur=20.0 / qblur=0.5 / vbv_maxrate=9500 / vbv_bufsize=9500 / nal_hrd=none / filler=0 / ip_ratio=1.40 / aq=1:1.10
    Language : English
    Encoded date : UTC 2016-03-18 11:54:01
    Tagged date : UTC 2016-03-18 11:54:07
    Color range : Limited
    Color primaries : BT.709
    Transfer characteristics : BT.709
    Matrix coefficients : BT.709
    Menus : 8,9
    Video #2
    ID : 9
    Format : JPEG
    Codec ID : jpeg
    Duration : 1h 33mn
    Bit rate mode : Variable
    Bit rate : 2 203 bps
    Width : 640 pixels
    Height : 272 pixels
    Display aspect ratio : 2.35:1
    Frame rate mode : Variable
    Frame rate : 0.005 fps
    Minimum frame rate : 0.002 fps
    Maximum frame rate : 0.011 fps
    Color space : YUV
    Chroma subsampling : 4:2:0
    Bit depth : 8 bits
    Compression mode : Lossy
    Bits/(Pixel*Frame) : 2.531
    Stream size : 1.52 MiB (0%)
    Title : Chapter Images
    Language : English
    Default : No
    Encoded date : UTC 2016-03-18 11:54:43
    Tagged date : UTC 2016-03-18 11:54:43
    Menu For : 1
    Audio #1
    ID : 2
    Format : AAC
    Format/Info : Advanced Audio Codec
    Format profile : LC
    Codec ID : 40
    Duration : 1h 33mn
    Bit rate mode : Variable
    Bit rate : 157 Kbps
    Maximum bit rate : 233 Kbps
    Channel(s) : 2 channels
    Channel positions : Front: L R
    Sampling rate : 48.0 KHz
    Frame rate : 46.875 fps (1024 spf)
    Compression mode : Lossy
    Stream size : 105 MiB (3%)
    Title : Russian Stereo
    Language : Russian
    Default : Yes
    Alternate group : 1
    Encoded date : UTC 2016-03-18 11:54:01
    Tagged date : UTC 2016-03-18 11:54:36
    Fallback From : 4
    Audio #2
    ID : 3
    Format : AAC
    Format/Info : Advanced Audio Codec
    Format profile : LC
    Codec ID : 40
    Duration : 1h 33mn
    Bit rate mode : Variable
    Bit rate : 158 Kbps
    Maximum bit rate : 245 Kbps
    Channel(s) : 2 channels
    Channel positions : Front: L R
    Sampling rate : 48.0 KHz
    Frame rate : 46.875 fps (1024 spf)
    Compression mode : Lossy
    Stream size : 106 MiB (3%)
    Title : English Stereo
    Language : English
    Default : No
    Alternate group : 1
    Encoded date : UTC 2016-03-18 11:54:01
    Tagged date : UTC 2016-03-18 11:54:36
    Fallback From : 5
    Audio #3
    ID : 4
    Format : AC-3
    Format/Info : Audio Coding 3
    Mode extension : CM (complete main)
    Format settings, Endianness : Big
    Codec ID : ac-3
    Duration : 1h 33mn
    Bit rate mode : Constant
    Bit rate : 384 Kbps
    Channel(s) : 6 channels
    Channel positions : Front: L C R, Side: L R, LFE
    Sampling rate : 48.0 KHz
    Frame rate : 31.250 fps (1536 spf)
    Bit depth : 16 bits
    Compression mode : Lossy
    Stream size : 258 MiB (7%)
    Title : Russian DD 5.1
    Language : Russian
    Default : Inherited From: 2
    Alternate group : 1
    Encoded date : UTC 2016-03-18 11:54:01
    Tagged date : UTC 2016-03-18 11:54:36
    Fallback To : 2
    Audio #4
    ID : 5
    Format : AC-3
    Format/Info : Audio Coding 3
    Mode extension : CM (complete main)
    Format settings, Endianness : Big
    Codec ID : ac-3
    Duration : 1h 33mn
    Bit rate mode : Constant
    Bit rate : 640 Kbps
    Channel(s) : 6 channels
    Channel positions : Front: L C R, Side: L R, LFE
    Sampling rate : 48.0 KHz
    Frame rate : 31.250 fps (1536 spf)
    Bit depth : 16 bits
    Compression mode : Lossy
    Stream size : 429 MiB (11%)
    Title : English DD 5.1
    Language : English
    Default : No
    Alternate group : 1
    Encoded date : UTC 2016-03-18 11:54:01
    Tagged date : UTC 2016-03-18 11:54:36
    Fallback To : 3
    Text #1
    ID : 6
    Format : Timed Text
    Muxing mode : sbtl
    Codec ID : tx3g
    Duration : 1h 25mn
    Bit rate mode : Variable
    Bit rate : 39 bps
    Stream size : 24.4 KiB (0%)
    Title : Russian full
    Language : Russian
    Default : Yes
    Forced : No
    Alternate group : 2
    Encoded date : UTC 2016-03-18 11:54:01
    Tagged date : UTC 2016-03-18 11:54:34
    Text #2
    ID : 7
    Format : Timed Text
    Muxing mode : sbtl
    Codec ID : tx3g
    Duration : 1h 24mn
    Bit rate mode : Variable
    Bit rate : 25 bps
    Stream size : 15.8 KiB (0%)
    Title : English full
    Language : English
    Default : No
    Forced : No
    Alternate group : 2
    Encoded date : UTC 2016-03-18 11:54:01
    Tagged date : UTC 2016-03-18 11:54:34
    Menu #1
    00:00:00.000 : Chapter 1
    00:03:38.051 : Chapter 2
    00:06:16.543 : Chapter 3
    00:08:14.244 : Chapter 4
    00:12:12.690 : Chapter 5
    00:14:33.998 : Chapter 6
    00:17:42.436 : Chapter 7
    00:21:10.728 : Chapter 8
    00:22:58.252 : Chapter 9
    00:26:41.141 : Chapter 10
    00:29:02.699 : Chapter 11
    00:33:10.447 : Chapter 12
    00:35:28.752 : Chapter 13
    00:38:14.542 : Chapter 14
    00:41:08.925 : Chapter 15
    00:45:43.032 : Chapter 16
    00:47:48.032 : Chapter 17
    00:51:48.355 : Chapter 18
    00:55:47.052 : Chapter 19
    01:00:23.036 : Chapter 20
    01:03:59.085 : Chapter 21
    01:05:27.298 : Chapter 22
    01:07:11.861 : Chapter 23
    01:11:06.512 : Chapter 24
    01:13:43.461 : Chapter 25
    01:16:01.515 : Chapter 26
    01:19:08.577 : Chapter 27
    01:23:56.949 : Chapter 28
    01:26:01.198 : Chapter 29
    Menu #2
    ID : 8
    Codec ID : text
    Duration : 1h 33mn
    Language : English
    Encoded date : UTC 2016-03-18 11:54:36
    Tagged date : UTC 2016-03-18 11:54:36
    Menu For : 1
    00:00:00.000 : Chapter 1
    00:03:38.051 : Chapter 2
    00:06:16.543 : Chapter 3
    00:08:14.244 : Chapter 4
    00:12:12.690 : Chapter 5
    00:14:33.998 : Chapter 6
    00:17:42.436 : Chapter 7
    00:21:10.728 : Chapter 8
    00:22:58.252 : Chapter 9
    00:26:41.141 : Chapter 10
    00:29:02.699 : Chapter 11
    00:33:10.447 : Chapter 12
    00:35:28.752 : Chapter 13
    00:38:14.542 : Chapter 14
    00:41:08.925 : Chapter 15
    00:45:43.032 : Chapter 16
    00:47:48.032 : Chapter 17
    00:51:48.355 : Chapter 18
    00:55:47.052 : Chapter 19
    01:00:23.036 : Chapter 20
    01:03:59.085 : Chapter 21
    01:05:27.298 : Chapter 22
    01:07:11.861 : Chapter 23
    01:11:06.512 : Chapter 24
    01:13:43.461 : Chapter 25
    01:16:01.515 : Chapter 26
    01:19:08.577 : Chapter 27
    01:23:56.949 : Chapter 28
    01:26:01.198 : Chapter 29
    Bit rate mode : VBR

    x264 лог

    x264 [info]: frame I:1400  Avg QP:16.95  size:158777
    x264 [info]: frame P:65042 Avg QP:19.78  size: 35523
    x264 [info]: frame B:68267 Avg QP:22.80  size:  9150
    x264 [info]: consecutive B-frames: 14.2% 46.4% 24.4% 15.0%
    x264 [info]: mb I  I16..4:  5.7% 54.0% 40.3%
    x264 [info]: mb P  I16..4:  1.8%  6.4%  3.1%  P16..4: 47.9% 21.8% 10.5%  0.0%  0.0%    skip: 8.6%
    x264 [info]: mb B  I16..4:  0.4%  1.7%  0.9%  B16..8: 34.0%  8.7%  1.9%  direct: 4.6%  skip:47.7%  L0:34.8% L1:52.4% BI:12.8%
    x264 [info]: 8x8 transform intra:56.7% inter:43.7%
    x264 [info]: coded y,uvDC,uvAC intra: 79.1% 79.7% 49.0% inter: 31.9% 24.8% 14.1%
    x264 [info]: i16 v,h,dc,p: 25% 19%  7% 49%
    x264 [info]: i8 v,h,dc,ddl,ddr,vr,hd,vl,hu:  6% 10%  5% 11% 15% 13% 15% 11% 13%
    x264 [info]: i4 v,h,dc,ddl,ddr,vr,hd,vl,hu:  6% 11%  4% 11% 17% 14% 16% 10% 11%
    x264 [info]: i8c dc,h,v,p: 48% 22% 16% 15%
    x264 [info]: ref P L0: 80.4% 11.6%  8.0%
    x264 [info]: ref B L0: 82.3% 17.7%
    x264 [info]: kb/s:4495.73

    Скриншоты

    -

    Релиз подготовлен для просмотра на Apple TV, iPad, iPhone, iPod Touch.
    Для просмотра данного релиза на компьютере с ОС Windows рекомендуется использовать VLC media player
    Скачать .torrent

    Скачать торрент-файл бесплатно и на максимальной скорости!

    Как скачивать? · Что такое торрент? · Рейтинг и ограничения

    !ВНИМАНИЕ!
    Сайт не распространяет и не хранит электронные версии произведений, а занимается лишь лишь предоставлением доступа к создаваемому пользователями каталогу ссылок на торрент-файлы, которые содержат только списки хеш-сумм, убедительная просьба с жалобами обращаться напрямую к пользователю. Файлы для обмена на трекере предоставлены пользователями сайта, и администрация не несёт ответственности за их содержание. Просьба не заливать файлы, защищенные авторскими правами, а также файлы нелегального содержания!


    _________________
    [Профиль] [ЛС]
    Показать сообщения:    
    Ответить на тему

    Текущее время: Сегодня, в 14:44

    Часовой пояс: GMT + 2



    Вы не можете начинать темы
    Вы не можете отвечать на сообщения
    Вы не можете редактировать свои сообщения
    Вы не можете удалять свои сообщения
    Вы не можете голосовать в опросах
    Вы не можете прикреплять файлы к сообщениям
    Вы не можете скачивать файлы