BitTorrentTracker PerecTracker.org
BitTorrentTracker PerecTracker.org
    
Регистрация  ·  Вход
 
 · 
Забыли пароль?

  • Красная Шапочка / Rotkappchen (Сибилла Тафель / Sibylle Tafel) [2012, Германия, детский, семейный, фэнтези, DVDRip] MVO + UKR + Original Ger

    Ответить на тему
     
    Автор Сообщение

    Columb

    Создавать темы 12-Янв-2014 13:06

           

    [Цитировать]

    Красная Шапочка / Rotkäppchen
    Страна: Германия
    Жанр: детский, семейный, фэнтези
    Год выпуска: 2012
    Продолжительность: 00:58:18
    Перевод: Профессиональный (многоголосый закадровый)
    Перевод 2: Профессиональный (дублированный)
    Оригинальная аудиодорожка: немецкий
    Cубтитры: нет
    Режиссер: Сибилла Тафель / Sibylle Tafel
    В ролях: Амона Ассманн, Зора Тиссен, Мари Грубер, Эдгар Зельге, Феликс Кларе, Хирон Красе, Нина Форбродт, Фридерике Фрерикс, Михель Юнг
    Описание: В городе все взволнованы: ходят слухи, что в окрестностях завелся волк. Но местный охотник твердо уверен в том, что курицу похитила лиса. Красную Шапочку эти разговоры совсем не беспокоят: она не боится зверей и любит гулять в лесу вместе со своей любимой бабушкой, которая живет в лесном домике. Только лишь робкий мальчик Антон действительно уверен, что в лесу завелся волк, поскольку повстречался с ним нос к носу. Но мальчику никто не верит, считая его трусом и фантазером ...
    Доп. информация: По мотивам сказки братьев Гримм
    Сэмпл: http://sendfile.su/921589
    Качество видео: DVDRip
    Формат видео: AVI
    Видео: MPEG-4 Visual, XviD, 720 x 400 (1.800), 25.000 fps, 1 472 Кбит/сек
    Аудио: AC-3, 192 Кбит/сек, 2 канала, 48,0 КГц Русский - Компания "Игмар" (канал Карусель)
    Аудио 2: AC-3, 192 Кбит/сек, 2 канала, 48,0 КГц Украинский - канал ТЕТ
    Аудио 3: AC-3, 224 Кбит/сек, 2 канала, 48,0 КГц Немецкий - оригинальная дорожка

    MediaInfo

    Общее
    Полное имя : C:\Documents and Settings\Admin.MYCOMP\Рабочий стол\Rotkappchen,(2012),[Rus-Ukr-Ger],DVDRip.avi
    Формат : AVI
    Формат/Информация : Audio Video Interleave
    Размер файла : 875 Мбайт
    Продолжительность : 58 м.
    Общий поток : 2099 Кбит/сек
    Программа кодирования : VirtualDubMod 1.5.10.2 (build 2540/release)
    Библиотека кодирования : VirtualDubMod build 2540/release
    Видео
    Идентификатор : 0
    Формат : MPEG-4 Visual
    Профиль формата : Advanced Simple@L5
    Параметр BVOP формата : 1
    Параметр QPel формата : Нет
    Параметр GMC формата : Без точки перехода
    Параметр матрицы формата : Default (H.263)
    Идентификатор кодека : XVID
    Идентификатор кодека/Подсказка : XviD
    Продолжительность : 58 м.
    Битрейт : 1472 Кбит/сек
    Ширина : 720 пикселей
    Высота : 400 пикселей
    Соотношение сторон : 16:9
    Частота кадров : 25,000 кадров/сек
    Цветовое пространство : YUV
    Субдискретизация насыщенности : 4:2:0
    Битовая глубина : 8 бит
    Тип развёртки : Прогрессивная
    Метод сжатия : С потерями
    Бит/(Пиксели*Кадры) : 0.204
    Размер потока : 614 Мбайт (70%)
    Библиотека кодирования : XviD 1.2.1 (UTC 2008-12-04)
    Аудио #1
    Идентификатор : 1
    Формат : AC-3
    Формат/Информация : Audio Coding 3
    Расширение режима : CM (complete main)
    Идентификатор кодека : 2000
    Продолжительность : 58 м.
    Вид битрейта : Постоянный
    Битрейт : 192 Кбит/сек
    Каналы : 2 канала
    Расположение каналов : Front: L R
    Частота : 48,0 КГц
    Битовая глубина : 16 бит
    Метод сжатия : С потерями
    Размер потока : 80,1 Мбайт (9%)
    Выравнивание : Разделение по промежуткам
    Продолжительность промежутка : 40 мс. (1,00 видеокадр)
    Время предзагрузки промежутка : 500 мс.
    Аудио #2
    Идентификатор : 2
    Формат : AC-3
    Формат/Информация : Audio Coding 3
    Расширение режима : CM (complete main)
    Идентификатор кодека : 2000
    Продолжительность : 58 м.
    Вид битрейта : Постоянный
    Битрейт : 192 Кбит/сек
    Каналы : 2 канала
    Расположение каналов : Front: L R
    Частота : 48,0 КГц
    Битовая глубина : 16 бит
    Метод сжатия : С потерями
    Размер потока : 80,1 Мбайт (9%)
    Выравнивание : Разделение по промежуткам
    Продолжительность промежутка : 40 мс. (1,00 видеокадр)
    Время предзагрузки промежутка : 500 мс.
    Аудио #3
    Идентификатор : 3
    Формат : AC-3
    Формат/Информация : Audio Coding 3
    Расширение режима : CM (complete main)
    Идентификатор кодека : 2000
    Продолжительность : 58 м.
    Вид битрейта : Постоянный
    Битрейт : 224 Кбит/сек
    Каналы : 2 канала
    Расположение каналов : Front: L R
    Частота : 48,0 КГц
    Битовая глубина : 16 бит
    Метод сжатия : С потерями
    Размер потока : 93,4 Мбайт (11%)
    Выравнивание : Разделение по промежуткам
    Продолжительность промежутка : 40 мс. (1,00 видеокадр)
    Время предзагрузки промежутка : 500 мс.

    Скриншот c названием фильма

    Скриншоты

    Скачать .torrent

    Скачать торрент-файл бесплатно и на максимальной скорости!

    Как скачивать? · Что такое торрент? · Рейтинг и ограничения

    !ВНИМАНИЕ!
    Сайт не распространяет и не хранит электронные версии произведений, а занимается лишь лишь предоставлением доступа к создаваемому пользователями каталогу ссылок на торрент-файлы, которые содержат только списки хеш-сумм, убедительная просьба с жалобами обращаться напрямую к пользователю. Файлы для обмена на трекере предоставлены пользователями сайта, и администрация не несёт ответственности за их содержание. Просьба не заливать файлы, защищенные авторскими правами, а также файлы нелегального содержания!

    [Профиль] [ЛС]
    Показать сообщения:    
    Ответить на тему

    Текущее время: Сегодня, в 11:08

    Часовой пояс: GMT + 2



    Вы не можете начинать темы
    Вы не можете отвечать на сообщения
    Вы не можете редактировать свои сообщения
    Вы не можете удалять свои сообщения
    Вы не можете голосовать в опросах
    Вы не можете прикреплять файлы к сообщениям
    Вы не можете скачивать файлы