BitTorrentTracker PerecTracker.org
BitTorrentTracker PerecTracker.org
    
Регистрация  ·  Вход
 
 · 
Забыли пароль?

  • Джейн берёт ружьё / Jane Got a Gun (Гэвин О’Коннор / Gavin O\'Connor) [2015, США, Криминальная драма о любви, WEB-DLRip] DVO

    Ответить на тему
     
    Автор Сообщение

    Light

    Создавать темы 18-Мар-2016 10:05

           

    [Цитировать]

    Джейн берёт ружьё / Jane Got a Gun
    Страна: США
    Жанр: Криминальная драма о любви
    Год выпуска: 2015
    Продолжительность: 01:33:14
    Перевод: Любительский (двухголосый закадровый)
    Cубтитры: отсутствуют
    Оригинальная аудиодорожка: нет
    Режиссёр: Гэвин О’Коннор / Gavin O'Connor
    В ролях: Натали Портман, Джоэл Эдгертон, Юэн МакГрегор, Родриго Санторо, Ноа Эммерик, Бойд Холбрук, Алекс Манетт, Тодд Стэшвик, Джеймс Барнетт, Сэм Куинн, и др.
    Краткое описание: История молодой американской женщины Джейн, которую давно покинул муж... Однако, однажды он возвращается домой, весь изрешечённый пулями, но всё-таки живой...

    Качество видео: WEB-DLRip [Jain.Beryot.Ruzhioe.RU.mkv_WEBRip720p_nnm-club]
    Формат видео: AVI
    Video: XviD 67 MPEG-4, 720x400 (16:9) 25.000 fps, ~2074 kbps avg, 0.288 bit/pixel
    Аudio: AC-3 Dolby Digital, CBR 192 kbps 2 ch (Front: L R) 48.0 KHz

    MediaInfo

    ОбщееПолное имя : P:\Jane_Got_a_Gun_2015_WEB-DLRip_[perectracker.org].aviФормат : AVIФормат/Информация : Audio Video InterleaveРазмер файла : 1,48 ГбайтПродолжительность : 1 ч. 33 м.Общий поток : 2276 Кбит/секНазвание фильма : Jane_Got_a_Gun_2015_WEB-DLRip_[perectracker.org]Режиссёр : OGORODNIKOFFFЖанр : Криминальная драма о любвиПрограмма кодирования : VirtualDubModRus 1.5.10.2 (build 2542/release)Формат оригинала/Имя : Новинки; Фильмы 2016Правообладатель : OGORODNIKOFFFПримечание : Рип подготовлен 18 марта 2016 года
    ВидеоИдентификатор : 0Формат : MPEG-4 VisualПрофиль формата : Advanced Simple@L5Параметр BVOP формата : 1Параметр QPel формата : НетПараметр GMC формата : Без точки переходаПараметр матрицы формата : ВыборочнаяИдентификатор кодека : DX50Идентификатор кодека/Подсказка : DivX 5Продолжительность : 1 ч. 33 м.Битрейт : 2074 Кбит/секШирина : 720 пикселейВысота : 400 пикселейСоотношение сторон : 16:9Частота кадров : 25,000 кадров/секЦветовое пространство : YUVСубдискретизация насыщенности : 4:2:0Битовая глубина : 8 битТип развёртки : ПрогрессивнаяМетод сжатия : С потерямиБит/(Пиксели*Кадры) : 0.288Размер потока : 1,35 Гбайт (91%)Библиотека кодирования : XviD 67
    АудиоИдентификатор : 1Формат : AC-3Формат/Информация : Audio Coding 3Расширение режима : CM (complete main)Параметр Endianness формата : BigИдентификатор кодека : 2000Продолжительность : 1 ч. 33 м.Вид битрейта : ПостоянныйБитрейт : 192 Кбит/секКаналы : 2 каналаРасположение каналов : Front: L RЧастота : 48,0 КГцБитовая глубина : 16 битМетод сжатия : С потерямиЗадержка видео : 190 мс.Размер потока : 128 Мбайт (8%)Выравнивание : Разделение по промежуткамПродолжительность промежутка : 40 мс. (1,00 видеокадр)Время предзагрузки промежутка : 500 мс.

    Скриншот c названием фильма

    Скриншоты

    Время раздачи - по возможности.
    Скачать .torrent

    Скачать торрент-файл бесплатно и на максимальной скорости!

    Как скачивать? · Что такое торрент? · Рейтинг и ограничения

    !ВНИМАНИЕ!
    Сайт не распространяет и не хранит электронные версии произведений, а занимается лишь лишь предоставлением доступа к создаваемому пользователями каталогу ссылок на торрент-файлы, которые содержат только списки хеш-сумм, убедительная просьба с жалобами обращаться напрямую к пользователю. Файлы для обмена на трекере предоставлены пользователями сайта, и администрация не несёт ответственности за их содержание. Просьба не заливать файлы, защищенные авторскими правами, а также файлы нелегального содержания!


    _________________
    [Профиль] [ЛС]
    Показать сообщения:    
    Ответить на тему

    Текущее время: Сегодня, в 16:09

    Часовой пояс: GMT + 2



    Вы не можете начинать темы
    Вы не можете отвечать на сообщения
    Вы не можете редактировать свои сообщения
    Вы не можете удалять свои сообщения
    Вы не можете голосовать в опросах
    Вы не можете прикреплять файлы к сообщениям
    Вы не можете скачивать файлы