BitTorrentTracker PerecTracker.org
BitTorrentTracker PerecTracker.org
    
Регистрация  ·  Вход
 
 · 
Забыли пароль?

  • Солдатики / Маленькие солдаты / Small Soldiers (Джо Данте / Joe Dante) [1998, США, фантастика, боевик, комедия, приключения, семейный, BDRip 720p] 4x MVO + DVO + AVO + VO + Sub Rus, Eng + Original Eng

    Ответить на тему
     
    Автор Сообщение

    Light

    Создавать темы 17-Мар-2016 21:29

           

    [Цитировать]

    Солдатики / Маленькие солдаты / Small Soldiers
    Страна: США
    Жанр: фантастика, боевик, комедия, приключения, семейный
    Год выпуска: 1998
    Продолжительность: 01:49:47
    Перевод: Профессиональный (многоголосый закадровый) Позитив-Мультимедиа
    Перевод 2: Профессиональный (многоголосый закадровый) Премьер Видео Фильм
    Перевод 3: Профессиональный (многоголосый закадровый) СТС
    Перевод 4: Профессиональный (многоголосый закадровый) Первый канал
    Перевод 5: Профессиональный (двухголосый закадровый) ТВ3
    Перевод 6: Авторский (одноголосый закадровый) Ю. Живов
    Перевод 7: Одноголосый закадровый П. Гланц по переводу Леонида Векшина
    Cубтитры: русские (full), английские (full)
    Оригинальная аудиодорожка: английский
    Режиссер: Джо Данте / Joe Dante
    В ролях: Кирстен Данст, Грегори Смит, Джей Мор, Фил Хартман, Кевин Данн, Дэвид Кросс, Энн Магнусон, Дик Миллер, Венди Шал, Роберт Пикардо, Джейкоб Смит, Дениис Лири
    Описание: Корпорация «Глоботек» задействовала в производстве игрушек военные технологии, один из разработчиков вставил в новую серию солдатиков сверхсовременные самообучающиеся микропроцессоры. В результате в магазин поступили злые десантники, запрограммированные воевать с добрыми фантастическими существами гаргонитами. Первым с ними столкнулся сын владельца маленького магазина игрушек, принявший сторону гаргонитов. Десантники, поначалу не трогавшие «гражданских лиц» вскоре перешли на совсем неигрушечные боевые действия и против людей. Мальчику, соседской девочке, а затем и их родителям пришлось вступить в бой. К ним присоединились и горе-разработчики, слишком поздно уразумевшие, каких бед они натворили. Даже мирные гаргониты, запрограммированные на то, чтобы прятаться, не выдержали и взялись за оружие.
    Доп. информация: Сравнение с раздачей http://perectracker.org/http://perectracker.org/viewtopic.php?t=4207493 -> http://screenshotcomparison.com/comparison/164136. Раздача не на замену WEB-DL, а как альтернатива - да, качество хуже, чем у BDRip, но наполнение кадра у WEB-DL чуть больше. Это очень хорошо видно на данном сравнении скриншотов -> http://screenshotcomparison.com/comparison/164136/picture:1
    Сэмпл: https://www.sendspace.com/file/m2m280
    Тип релиза: BDRip 720p
    Контейнер: MKV
    Видео: MPEG-4 AVC/H.264 / 6500 kbps / 1280x546 / 23.976 fps
    Аудио 1: MVO Позитив-Мультимедиа (Rus) / AC3 / 6 ch / 448 kbps / 48 kHz
    Аудио 2: MVO Премьер Видео Фильм (Rus) / AC3 / 2 ch / 192 kbps / 48 kHz
    Аудио 3: MVO СТС (Rus) / AC3 / 2 ch / 192 kbps / 48 kHz
    Аудио 4: MVO Первый канал (Rus) / AC3 / 2 ch / 192 kbps / 48 kHz
    Аудио 5: DVO ТВ3 (Rus) / AC3 / 2 ch / 192 kbps / 48 kHz
    Аудио 6: AVO Живов (Rus) / AC3 / 2 ch / 192 kbps / 48 kHz
    Аудио 7: VO Гланц (Rus) / AC3 / 6 ch / 448 kbps / 48 kHz
    Аудио 8: English / AC3 / 6 ch / 448 kbps / 48 kHz
    Формат субтитров: softsub (SRT)
    Доп. информация о субтитрах: Русские (full), Английские (full)
    #Сохранены оригинальные чаптеры как на Blu-ray

    MediaInfo

    General
    Unique ID : 175890689053793141501106654482069132596 (0x84535082FDA2BB0285B5161FEB431534)
    Complete name : J:\Torrents\1\Солдатики (1998) BDRip-720p.mkv
    Format : Matroska
    Format version : Version 2
    File size : 6.75 GiB
    Duration : 1h 49mn
    Overall bit rate : 8 805 Kbps
    Movie name : Солдатики / Small Soldiers (1998)
    Encoded date : UTC 2016-03-16 20:13:49
    Writing application : mkvmerge v5.5.0 ('Healer') built on Apr 24 2012 23:47:03
    Writing library : libebml v1.2.3 + libmatroska v1.3.0
    Video
    ID : 1
    Format : AVC
    Format/Info : Advanced Video Codec
    Format profile : High@L4.1
    Format settings, CABAC : Yes
    Format settings, ReFrames : 9 frames
    Codec ID : V_MPEG4/ISO/AVC
    Duration : 1h 49mn
    Bit rate : 6 500 Kbps
    Width : 1 280 pixels
    Height : 546 pixels
    Display aspect ratio : 2.35:1
    Frame rate mode : Constant
    Frame rate : 23.976 (24000/1001) fps
    Color space : YUV
    Chroma subsampling : 4:2:0
    Bit depth : 8 bits
    Scan type : Progressive
    Bits/(Pixel*Frame) : 0.388
    Stream size : 4.85 GiB (72%)
    Title : BDRip (720p) / MPEG-4 AVC/H.264 / 6500 kbps / 1280x546 / 23.976 fps
    Writing library : x264 core 142 r2409+42 04be48a tMod [8-bit@4:2:0 X86_64]
    Encoding settings : cabac=1 / ref=9 / deblock=1:-3:-3 / analyse=0x3:0x113 / me=umh / subme=11 / psy=1 / fade_compensate=0.00 / psy_rd=1.00:0.20 / mixed_ref=1 / me_range=32 / chroma_me=1 / trellis=2 / 8x8dct=1 / cqm=0 / deadzone=21,11 / fast_pskip=0 / chroma_qp_offset=-3 / threads=12 / lookahead_threads=3 / sliced_threads=0 / nr=0 / decimate=0 / interlaced=0 / bluray_compat=0 / constrained_intra=0 / fgo=0 / bframes=12 / b_pyramid=2 / b_adapt=2 / b_bias=0 / direct=3 / weightb=1 / open_gop=0 / weightp=2 / keyint=240 / keyint_min=23 / scenecut=40 / intra_refresh=0 / rc=2pass / mbtree=0 / bitrate=6500 / ratetol=1.0 / qcomp=0.60 / qpmin=0:0:0 / qpmax=69:69:69 / qpstep=4 / cplxblur=20.0 / qblur=0.5 / ip_ratio=1.40 / pb_ratio=1.30 / aq=2:0.80 / aq-sensitivity=10.00 / aq-factor=1.00:1.00:1.00 / aq2=0 / aq3=0
    Language : English
    Default : Yes
    Forced : Yes
    Audio #1
    ID : 2
    Format : AC-3
    Format/Info : Audio Coding 3
    Mode extension : CM (complete main)
    Format settings, Endianness : Big
    Codec ID : A_AC3
    Duration : 1h 49mn
    Bit rate mode : Constant
    Bit rate : 448 Kbps
    Channel(s) : 6 channels
    Channel positions : Front: L C R, Side: L R, LFE
    Sampling rate : 48.0 KHz
    Frame rate : 31.250 fps (1536 spf)
    Compression mode : Lossy
    Stream size : 352 MiB (5%)
    Title : MVO Позитив-Мультимедиа (Rus) / AC3 / 6 ch / 448 kbps / 48 kHz
    Language : Russian
    Default : Yes
    Forced : Yes
    Audio #2
    ID : 3
    Format : AC-3
    Format/Info : Audio Coding 3
    Mode extension : CM (complete main)
    Format settings, Endianness : Big
    Codec ID : A_AC3
    Duration : 1h 49mn
    Bit rate mode : Constant
    Bit rate : 192 Kbps
    Channel(s) : 2 channels
    Channel positions : Front: L R
    Sampling rate : 48.0 KHz
    Frame rate : 31.250 fps (1536 spf)
    Compression mode : Lossy
    Delay relative to video : 500ms
    Stream size : 151 MiB (2%)
    Title : MVO Премьер Видео Фильм (Rus) / AC3 / 2 ch / 192 kbps / 48 kHz
    Language : Russian
    Default : No
    Forced : No
    Audio #3
    ID : 4
    Format : AC-3
    Format/Info : Audio Coding 3
    Mode extension : CM (complete main)
    Format settings, Endianness : Big
    Codec ID : A_AC3
    Duration : 1h 49mn
    Bit rate mode : Constant
    Bit rate : 192 Kbps
    Channel(s) : 2 channels
    Channel positions : Front: L R
    Sampling rate : 48.0 KHz
    Frame rate : 31.250 fps (1536 spf)
    Compression mode : Lossy
    Stream size : 151 MiB (2%)
    Title : MVO СТС (Rus) / AC3 / 2 ch / 192 kbps / 48 kHz
    Language : Russian
    Default : No
    Forced : No
    Audio #4
    ID : 5
    Format : AC-3
    Format/Info : Audio Coding 3
    Mode extension : CM (complete main)
    Format settings, Endianness : Big
    Codec ID : A_AC3
    Duration : 1h 49mn
    Bit rate mode : Constant
    Bit rate : 192 Kbps
    Channel(s) : 2 channels
    Channel positions : Front: L R
    Sampling rate : 48.0 KHz
    Frame rate : 31.250 fps (1536 spf)
    Compression mode : Lossy
    Stream size : 151 MiB (2%)
    Title : MVO Первый канал (Rus) / AC3 / 2 ch / 192 kbps / 48 kHz
    Language : Russian
    Default : No
    Forced : No
    Audio #5
    ID : 6
    Format : AC-3
    Format/Info : Audio Coding 3
    Mode extension : CM (complete main)
    Format settings, Endianness : Big
    Codec ID : A_AC3
    Duration : 1h 49mn
    Bit rate mode : Constant
    Bit rate : 192 Kbps
    Channel(s) : 2 channels
    Channel positions : Front: L R
    Sampling rate : 48.0 KHz
    Frame rate : 31.250 fps (1536 spf)
    Compression mode : Lossy
    Stream size : 151 MiB (2%)
    Title : DVO ТВ3 (Rus) / AC3 / 2 ch / 192 kbps / 48 kHz
    Language : Russian
    Default : No
    Forced : No
    Audio #6
    ID : 7
    Format : AC-3
    Format/Info : Audio Coding 3
    Mode extension : CM (complete main)
    Format settings, Endianness : Big
    Codec ID : A_AC3
    Duration : 1h 49mn
    Bit rate mode : Constant
    Bit rate : 192 Kbps
    Channel(s) : 2 channels
    Channel positions : Front: L R
    Sampling rate : 48.0 KHz
    Frame rate : 31.250 fps (1536 spf)
    Compression mode : Lossy
    Delay relative to video : 600ms
    Stream size : 151 MiB (2%)
    Title : AVO Живов (Rus) / AC3 / 2 ch / 192 kbps / 48 kHz
    Language : Russian
    Default : No
    Forced : No
    Audio #7
    ID : 8
    Format : AC-3
    Format/Info : Audio Coding 3
    Mode extension : CM (complete main)
    Format settings, Endianness : Big
    Codec ID : A_AC3
    Duration : 1h 49mn
    Bit rate mode : Constant
    Bit rate : 448 Kbps
    Channel(s) : 6 channels
    Channel positions : Front: L C R, Side: L R, LFE
    Sampling rate : 48.0 KHz
    Frame rate : 31.250 fps (1536 spf)
    Compression mode : Lossy
    Stream size : 352 MiB (5%)
    Title : VO Гланц (Rus) / AC3 / 6 ch / 448 kbps / 48 kHz
    Language : Russian
    Default : No
    Forced : No
    Audio #8
    ID : 9
    Format : AC-3
    Format/Info : Audio Coding 3
    Mode extension : CM (complete main)
    Format settings, Endianness : Big
    Codec ID : A_AC3
    Duration : 1h 49mn
    Bit rate mode : Constant
    Bit rate : 448 Kbps
    Channel(s) : 6 channels
    Channel positions : Front: L C R, Side: L R, LFE
    Sampling rate : 48.0 KHz
    Frame rate : 31.250 fps (1536 spf)
    Compression mode : Lossy
    Stream size : 352 MiB (5%)
    Title : Original (Eng) / AC3 / 6 ch / 448 kbps / 48 kHz
    Language : English
    Default : No
    Forced : No
    Text #1
    ID : 10
    Format : UTF-8
    Codec ID : S_TEXT/UTF8
    Codec ID/Info : UTF-8 Plain Text
    Title : Full (Rus) / S_TEXT/UTF8
    Language : Russian
    Default : No
    Forced : No
    Text #2
    ID : 11
    Format : UTF-8
    Codec ID : S_TEXT/UTF8
    Codec ID/Info : UTF-8 Plain Text
    Title : Full (Eng) / S_TEXT/UTF8
    Language : English
    Default : No
    Forced : No
    Menu
    00:00:00.000 : en:Chapter 01
    00:07:30.324 : en:Chapter 02
    00:10:31.672 : en:Chapter 03
    00:18:36.281 : en:Chapter 04
    00:21:43.302 : en:Chapter 05
    00:29:40.528 : en:Chapter 06
    00:35:30.711 : en:Chapter 07
    00:42:50.484 : en:Chapter 08
    00:49:42.521 : en:Chapter 09
    00:58:14.699 : en:Chapter 10
    01:04:33.744 : en:Chapter 11
    01:12:49.740 : en:Chapter 12
    01:18:46.263 : en:Chapter 13
    01:28:05.905 : en:Chapter 14
    01:37:45.192 : en:Chapter 15
    01:44:15.165 : en:Chapter 16

    Скриншоты

    Цитата:
    Цитата:

    • Звуковая дорожка №2 скачана с данного трекера, но самой раздачи не сохранилось
    • Звуковые дорожки №4, №5, №6 взяты из раздачи пользователя [url=profile.php?mode=viewprofile&u=20398762]JUSTKANT[/url]
    Скачать .torrent

    Скачать торрент-файл бесплатно и на максимальной скорости!

    Как скачивать? · Что такое торрент? · Рейтинг и ограничения

    !ВНИМАНИЕ!
    Сайт не распространяет и не хранит электронные версии произведений, а занимается лишь лишь предоставлением доступа к создаваемому пользователями каталогу ссылок на торрент-файлы, которые содержат только списки хеш-сумм, убедительная просьба с жалобами обращаться напрямую к пользователю. Файлы для обмена на трекере предоставлены пользователями сайта, и администрация не несёт ответственности за их содержание. Просьба не заливать файлы, защищенные авторскими правами, а также файлы нелегального содержания!


    _________________
    [Профиль] [ЛС]
    Показать сообщения:    
    Ответить на тему

    Текущее время: Сегодня, в 11:50

    Часовой пояс: GMT + 2



    Вы не можете начинать темы
    Вы не можете отвечать на сообщения
    Вы не можете редактировать свои сообщения
    Вы не можете удалять свои сообщения
    Вы не можете голосовать в опросах
    Вы не можете прикреплять файлы к сообщениям
    Вы не можете скачивать файлы