BitTorrentTracker PerecTracker.org
BitTorrentTracker PerecTracker.org
    
Регистрация  ·  Вход
 
 · 
Забыли пароль?

  • Неизвестная Граница: Голоса из острова Манус / Nowhere Line: Voices from Manus Island (Лукас Шранк / Lukas Schrank) [2015, Австралия, Короткий метр, документальный, DVDRip] VO (Max Nabokov)

    Ответить на тему
     
    Автор Сообщение

    Flirldrerve

    Создавать темы 17-Мар-2016 21:29

           

    [Цитировать]

    Неизвестная Граница: Голоса из острова Манус / Nowhere Line: Voices from Manus Island
    Страна: Австралия
    Жанр: Короткий метр, документальный
    Продолжительность: 0:15:16
    Год выпуска: 2015
    Перевод: Одноголосый закадровый (Max Nabokov)
    Русские субтитры: Английский (hardsub)
    Режиссёр: Лукас Шранк / Lukas Schrank
    Описание: Это рассказ двух нелегальных эмигрантов желавших поселится в Австралии. О том как судьба уготовила им тяжкое испытание. Побег из родной страны, нелегкий и изнурительный путь через океан полный лишений и разочарований. Ведь вместо Австралийского континента им довелось оказаться в центре временного проживания на острове Манус (Папуа — Новая Гвинея). Где в феврале 2014 года во время подавления протеста беженцев против условий содержания в центре для нелегалов, полицией, охраной и местными жителями применялись огнестрельное оружие, дубинки и мачете. В результате чего был убит 23-х летний Реза Барати, а более 70-ти перемещенных мигрантов получили ранения различной степени.
    Авторам удалось пообщаться по телефону с двумя очевидцами этих событий. В этом фильме предоставлены записи этих разговоров.
    Сэмпл: http://multi-up.com/1093515
    Качество: DVDRip
    Формат: AVI
    Видео: 720x304 (2.37:1), 25 fps, XviD build 50 ~1998 kbps avg, 0.36 bit/pixel
    Аудио 1: 48 kHz, AC3 Dolby Digital, 2/0 (L,R) ch, ~192.00 kbps avg (рус)
    Аудио 2: 48 kHz, AC3 Dolby Digital, 2/0 (L,R) ch, ~192.00 kbps avg

    Подробные технические данные

    GeneralComplete name : D:\МУЛЬТФИЛЬМЫ\Nowhere Line - Voices from Manus Island. 2015 (Max Nabokov).aviFormat : AVIFormat/Info : Audio Video InterleaveFile size : 262 MiBDuration : 15mn 16sOverall bit rate : 2 397 KbpsWriting application : VirtualDubMod 1.5.10.2 (build 2540/release)Writing library : VirtualDubMod build 2540/release
    VideoID : 0Format : MPEG-4 VisualFormat profile : Advanced Simple@L5Format settings, BVOP : 1Format settings, QPel : NoFormat settings, GMC : No warppointsFormat settings, Matrix : Default (H.263)Codec ID : XVIDCodec ID/Hint : XviDDuration : 15mn 16sBit rate : 1 999 KbpsWidth : 720 pixelsHeight : 304 pixelsDisplay aspect ratio : 2.35:1Frame rate : 25.000 fpsColor space : YUVChroma subsampling : 4:2:0Bit depth : 8 bitsScan type : ProgressiveCompression mode : LossyBits/(Pixel*Frame) : 0.365Stream size : 218 MiB (83%)Writing library : XviD 1.2.1 (UTC 2008-12-04)
    Audio #1ID : 1Format : AC-3Format/Info : Audio Coding 3Mode extension : CM (complete main)Format settings, Endianness : BigCodec ID : 2000Duration : 15mn 16sBit rate mode : ConstantBit rate : 192 KbpsChannel(s) : 2 channelsChannel positions : Front: L RSampling rate : 48.0 KHzFrame rate : 31.250 fps (1536 spf)Compression mode : LossyStream size : 21.0 MiB (8%)Alignment : Split accross interleavesInterleave, duration : 40 ms (1.00 video frame)Interleave, preload duration : 500 ms
    Audio #2ID : 2Format : AC-3Format/Info : Audio Coding 3Mode extension : CM (complete main)Format settings, Endianness : BigCodec ID : 2000Duration : 15mn 16sBit rate mode : ConstantBit rate : 192 KbpsChannel(s) : 2 channelsChannel positions : Front: L RSampling rate : 48.0 KHzFrame rate : 31.250 fps (1536 spf)Compression mode : LossyStream size : 21.0 MiB (8%)Alignment : Split accross interleavesInterleave, duration : 40 ms (1.00 video frame)Interleave, preload duration : 500 ms

    Скриншоты




    Скачать .torrent

    Скачать торрент-файл бесплатно и на максимальной скорости!

    Как скачивать? · Что такое торрент? · Рейтинг и ограничения

    !ВНИМАНИЕ!
    Сайт не распространяет и не хранит электронные версии произведений, а занимается лишь лишь предоставлением доступа к создаваемому пользователями каталогу ссылок на торрент-файлы, которые содержат только списки хеш-сумм, убедительная просьба с жалобами обращаться напрямую к пользователю. Файлы для обмена на трекере предоставлены пользователями сайта, и администрация не несёт ответственности за их содержание. Просьба не заливать файлы, защищенные авторскими правами, а также файлы нелегального содержания!


    _________________
    [Профиль] [ЛС]
    Показать сообщения:    
    Ответить на тему

    Текущее время: Сегодня, в 18:55

    Часовой пояс: GMT + 2



    Вы не можете начинать темы
    Вы не можете отвечать на сообщения
    Вы не можете редактировать свои сообщения
    Вы не можете удалять свои сообщения
    Вы не можете голосовать в опросах
    Вы не можете прикреплять файлы к сообщениям
    Вы не можете скачивать файлы