BitTorrentTracker PerecTracker.org
BitTorrentTracker PerecTracker.org
    
Регистрация  ·  Вход
 
 · 
Забыли пароль?

  • Здравствуй, папа, Новый год / Daddy\'s Home (Шон Андерс / Sean Anders) [2015, США, Комедия, HDRip] Dub (Line)

    Ответить на тему
     
    Автор Сообщение

    Light

    Создавать темы 17-Мар-2016 21:29

           

    [Цитировать]

    -Здравствуй, папа, Новый год / Daddy's Home
    -Страна: США
    Жанр: Комедия
    Год выпуска: 2015
    Продолжительность: 01:36:01
    Перевод
    : Профессиональный (дублированный) Line
    Cубтитры: нет-Режиссер: Шон Андерс / Sean Anders-В ролях: Уилл Феррелл, Марк Уолберг, Линда Карделлини, Томас Хейден Чёрч, Скарлет Эстевез, Оуэн Ваккаро, Бобби Каннавале, Хэннибал Бёресс, Билл Бёрр, Джейми Денбо-Описание: Отец двоих детей возвращается к своей бывшей жене, которая успела выйти замуж, и теперь его ждет соперничество с отчимом за внимание своих отпрысков- -Качество видео: HDRip
    Формат видео: AVI
    Видео: XviD 720x400 23.98fps 1961kbps
    Аудио: AC3 48kHz 2ch 192kbps-

    MediaInfo

    General
    Complete name : D:\Фильмы\Здравствуй, папа, Новый год.avi
    Format : AVI
    Format/Info : Audio Video Interleave
    File size : 1.46 GiB
    Duration : 1h 36mn
    Overall bit rate : 2 163 Kbps
    Writing application : VirtualDubMod 1.5.10.3 | www.virtualdub-fr.org || (build 2550/release)
    Writing library : VirtualDubMod build 2550/release
    Video
    ID : 0
    Format : MPEG-4 Visual
    Format profile : Advanced Simple@L5
    Format settings, BVOP : 2
    Format settings, QPel : No
    Format settings, GMC : No warppoints
    Format settings, Matrix : Default (MPEG)
    Codec ID : XVID
    Codec ID/Hint : XviD
    Duration : 1h 36mn
    Bit rate : 1 961 Kbps
    Width : 720 pixels
    Height : 400 pixels
    Display aspect ratio : 16:9
    Frame rate : 23.976 (24000/1001) fps
    Color space : YUV
    Chroma subsampling : 4:2:0
    Bit depth : 8 bits
    Scan type : Progressive
    Compression mode : Lossy
    Bits/(Pixel*Frame) : 0.284
    Stream size : 1.32 GiB (91%)
    Writing library : XviD 1.2.1 (UTC 2008-12-04)
    Audio
    ID : 1
    Format : AC-3
    Format/Info : Audio Coding 3
    Mode extension : CM (complete main)
    Format settings, Endianness : Big
    Codec ID : 2000
    Duration : 1h 36mn
    Bit rate mode : Constant
    Bit rate : 192 Kbps
    Channel(s) : 2 channels
    Channel positions : Front: L R
    Sampling rate : 48.0 KHz
    Frame rate : 31.250 fps (1536 spf)
    Compression mode : Lossy
    Stream size : 132 MiB (9%)
    Alignment : Split accross interleaves
    Interleave, duration : 42 ms (1.00 video frame)
    Interleave, preload duratio : 500 ms

    -

    Скриншот c названием фильма

    Скриншоты

    -
    Скачать .torrent

    Скачать торрент-файл бесплатно и на максимальной скорости!

    Как скачивать? · Что такое торрент? · Рейтинг и ограничения

    !ВНИМАНИЕ!
    Сайт не распространяет и не хранит электронные версии произведений, а занимается лишь лишь предоставлением доступа к создаваемому пользователями каталогу ссылок на торрент-файлы, которые содержат только списки хеш-сумм, убедительная просьба с жалобами обращаться напрямую к пользователю. Файлы для обмена на трекере предоставлены пользователями сайта, и администрация не несёт ответственности за их содержание. Просьба не заливать файлы, защищенные авторскими правами, а также файлы нелегального содержания!


    _________________
    [Профиль] [ЛС]
    Показать сообщения:    
    Ответить на тему

    Текущее время: Сегодня, в 22:33

    Часовой пояс: GMT + 2



    Вы не можете начинать темы
    Вы не можете отвечать на сообщения
    Вы не можете редактировать свои сообщения
    Вы не можете удалять свои сообщения
    Вы не можете голосовать в опросах
    Вы не можете прикреплять файлы к сообщениям
    Вы не можете скачивать файлы