BitTorrentTracker PerecTracker.org
BitTorrentTracker PerecTracker.org
    
Регистрация  ·  Вход
 
 · 
Забыли пароль?

  • Новые приключения Аладдина / Les nouvelles aventures d\'Aladin (Артур Бензакен / Arthur Benzaquen) [2015, Франция, Бельгия, Комедия, HDRip] Dub (iTunes)

    Ответить на тему
     
    Автор Сообщение

    Light

    Создавать темы 17-Мар-2016 17:17

           

    [Цитировать]

    -Новые приключения АладдинаLes nouvelles aventures d'Aladin--Страна: Франция, Бельгия
    Жанр: Комедия
    Год выпуска: 2015
    Продолжительность: 01:45:45-Перевод: Профессиональный (дублированный) iTunes
    Cубтитры: нет
    Оригинальная аудиодорожка: французский-Режиссер: Артур Бензакен / Arthur Benzaquen-В ролях: Кев Адамс, Жан-Поль Рув, Ванесса Гуид, Уилльям Лебхил, Одри Лами, Артур Бензакен, Эрик Жюдор, Мишель Блан, Рамзи Бедиа,Надер Буссандель-Описание: Думаете, вы знаете историю про Аладдина? Как бы не так, оказывается у этой истории еще много неизвестных страниц. Мы расскажем вам эту сказку совершенно по-новому, добро пожаловать в самое сердце Багдада — города тысячи сокровищ, где на улицах летают ковры-самолеты, колдуны предлагают зелья для омоложения, а в замке томится принцесса, которая иногда тайком выбирается в город, где как раз и орудует находчивый и предприимчивый воришка по имени Аладдин…--Качество видео: HDRip
    Формат видео: AVI
    Видео: XviD 720x304 24fps 1991kbps
    Аудио Rus: AC3 48kHz 6ch 384kbps
    Аудио Fra:AC3 48kHz 6ch 384kbps-

    MediaInfo

    General
    Complete name : D:\Фильмы\Новые приключения Аладдина.avi
    Format : AVI
    Format/Info : Audio Video Interleave
    Format profile : OpenDML
    File size : 2.05 GiB
    Duration : 1h 45mn
    Overall bit rate : 2 777 Kbps
    Writing application : VirtualDubMod 1.5.10.2 (build 2540/release)
    Writing library : VirtualDubMod build 2540/release
    Video
    ID : 0
    Format : MPEG-4 Visual
    Format profile : Advanced Simple@L5
    Format settings, BVOP : 2
    Format settings, QPel : No
    Format settings, GMC : No warppoints
    Format settings, Matrix : Default (MPEG)
    Codec ID : XVID
    Codec ID/Hint : XviD
    Duration : 1h 45mn
    Bit rate : 1 991 Kbps
    Width : 720 pixels
    Height : 304 pixels
    Display aspect ratio : 2.35:1
    Frame rate : 24.000 fps
    Color space : YUV
    Chroma subsampling : 4:2:0
    Bit depth : 8 bits
    Scan type : Progressive
    Compression mode : Lossy
    Bits/(Pixel*Frame) : 0.379
    Stream size : 1.47 GiB (72%)
    Writing library : XviD 1.2.1 (UTC 2008-12-04)
    Audio #1
    ID : 1
    Format : AC-3
    Format/Info : Audio Coding 3
    Mode extension : CM (complete main)
    Format settings, Endianness : Big
    Codec ID : 2000
    Duration : 1h 45mn
    Bit rate mode : Constant
    Bit rate : 384 Kbps
    Channel(s) : 6 channels
    Channel positions : Front: L C R, Side: L R, LFE
    Sampling rate : 48.0 KHz
    Frame rate : 31.250 fps (1536 spf)
    Compression mode : Lossy
    Stream size : 290 MiB (14%)
    Alignment : Split accross interleaves
    Interleave, duration : 42 ms (1.00 video frame)
    Interleave, preload duratio : 500 ms
    Audio #2
    ID : 2
    Format : AC-3
    Format/Info : Audio Coding 3
    Mode extension : CM (complete main)
    Format settings, Endianness : Big
    Codec ID : 2000
    Duration : 1h 45mn
    Bit rate mode : Constant
    Bit rate : 384 Kbps
    Channel(s) : 6 channels
    Channel positions : Front: L C R, Side: L R, LFE
    Sampling rate : 48.0 KHz
    Frame rate : 31.250 fps (1536 spf)
    Compression mode : Lossy
    Stream size : 290 MiB (14%)
    Alignment : Split accross interleaves
    Interleave, duration : 42 ms (1.00 video frame)
    Interleave, preload duratio : 500 ms

    -

    Скриншот c названием фильма

    Скриншоты

    -
    Скачать .torrent

    Скачать торрент-файл бесплатно и на максимальной скорости!

    Как скачивать? · Что такое торрент? · Рейтинг и ограничения

    !ВНИМАНИЕ!
    Сайт не распространяет и не хранит электронные версии произведений, а занимается лишь лишь предоставлением доступа к создаваемому пользователями каталогу ссылок на торрент-файлы, которые содержат только списки хеш-сумм, убедительная просьба с жалобами обращаться напрямую к пользователю. Файлы для обмена на трекере предоставлены пользователями сайта, и администрация не несёт ответственности за их содержание. Просьба не заливать файлы, защищенные авторскими правами, а также файлы нелегального содержания!


    _________________
    [Профиль] [ЛС]
    Показать сообщения:    
    Ответить на тему

    Текущее время: Сегодня, в 12:54

    Часовой пояс: GMT + 2



    Вы не можете начинать темы
    Вы не можете отвечать на сообщения
    Вы не можете редактировать свои сообщения
    Вы не можете удалять свои сообщения
    Вы не можете голосовать в опросах
    Вы не можете прикреплять файлы к сообщениям
    Вы не можете скачивать файлы