BitTorrentTracker PerecTracker.org
BitTorrentTracker PerecTracker.org
    
Регистрация  ·  Вход
 
 · 
Забыли пароль?

  • Убийца / Sicario (Дени Вильнёв / Denis Villeneuve) [2015, США, боевик, триллер, драма, криминал, детектив, BDRip 1080p] Dub + VO (Алексей Матвеев) + VO (Дмитрий Есарев) + Sub Rus, Eng + Original Eng

    Ответить на тему
     
    Автор Сообщение

    Light

    Создавать темы 17-Мар-2016 13:05

           

    [Цитировать]

    -Убийца / Sicario-Страна: США
    Жанр: боевик, триллер, драма, криминал, детектив
    Год выпуска: 2015
    Продолжительность: 02:01:20
    Перевод: Профессиональный (дублированный)
    Перевод 2: Одноголосый закадровый Алексей Матвеев
    Перевод 3: Одноголосый закадровый Дмитрий Есарев (2 варианта - с матом и без)
    Cубтитры: русские (форсированные, Воронин, Матвеев), английские х3
    Оригинальная аудиодорожка: английский-Режиссер: Дени Вильнёв / Denis Villeneuve
    В ролях: Эмили Блант (Kate Macer), Бенисио Дель Торо (Alejandro), Джош Бролин (Matt Graver), Виктор Гарбер (Dave Jennings), Джон Бернтал (Ted), Дэниэл Калуя (Reggie Wayne), Джеффри Донован (Steve Forsing), Рауль Трухильо (Rafael), Хулио Седильо (Fausto Alarcon), Хэнк Роджерсон (Phil Coopers), Бернардо Галлегос (Manuel Diaz), Максимилиано Эрнандес (Silvio)-Описание: На американо-мексиканской границе женщина-полицейский сопровождает двух рейнджеров, которые преследуют наркобарона. Она не подозревает, что по ту сторону границы есть тайное место, где не действуют никакие законы и царят насилие и разврат.-Сэмпл: https://yadi.sk/i/eMAMwjO6qFFV5-Тип релиза: BDRip 1080p
    Контейнер: MKV
    Видео: MPEG-4 AVC Video ~17.5 Mbps 1920 x 800 / 23,976 fps / 2.40:1 / High Profile 4.1
    Аудио: Russian Dolby Digital Audio 384 kbps 5.1 / 48 kHz | Дубляж
    Аудио 2: Russian DTS Audio 5.1 / 48 kHz / 1510 kbps | Алексей Матвеев
    Аудио 3: Russian Dolby Digital Audio 448 kbps 5.1 / 48 kHz | Дмитрий Есарев (ненормативный)
    Аудио 4: Russian Dolby Digital Audio 448 kbps 5.1 / 48 kHz | Дмитрий Есарев (цензурный)
    Аудио 5: English DTS Audio 5.1 / 48 kHz / 1510 kbps
    Формат субтитров: softsub (SRT)

    Видеоряд от TayTO

    ----------------------MOViE iNFO------------------------
    Sicario 2015 1080p BluRay DD-EX x264-TayTO
    RELEASE SiZE...: 15.69 GiBRUNTiME........: 2h 1mnViDEO CODEC....: x264 High@L4.1FRAMERATE......: 23.976 fpsBiTRATE........: 17.5 MbpsASPECT RATiO...: 2.40:1RESOLUTiON.....: 1920 x 800AUDiO..........: English DD-EX 5.1 @ 640 KbpsCHAPTERS.......: YesSOURCE.........: 1080p CAN Blu-ray AVC TrueHD 7.1-PCH ~ Thanks Mary !SUBTiTLES......: English-Forced, English, English-SDH, French, French-Forced, Spanish, Vietnamese. (srt)
    ENCODER........: hungdaita @ TayTORELEASE.DATE...: 10/01/2016
    .x264 iNFO:--crf 15.9 --preset placebo --me umh --subme 11 --bframes 11 --deblock -3:-3 --ipratio 1.24 --pbratio 1.18 --psy-rd 1.00--qcomp 0.65 --aq-strength 0.75 --merange 32 --vbv-bufsize 78125 --vbv-maxrate 62500 --no-mbtree --no-dct-decimate
    .x264 LOG:x264 [info]: frame I:1110 Avg QP:11.48 size:267831x264 [info]: frame P:33133 Avg QP:13.35 size:140980x264 [info]: frame B:140310 Avg QP:13.91 size: 80525x264 [info]: consecutive B-frames: 1.2% 3.7% 4.4% 8.9% 15.1% 40.1% 10.8% 2.8% 3.8% 2.5% 4.7% 1.9%
    encoded 174553 frames, 4.997 fps, 17874.87 kb/s, 15513 MB ~ encoding duration 9h:42m:15s
    .NOTES:* Reason for the proper: Encoded with better source no Hardcoded subs.* Applied F3kdb ConditionalFilter for Banding & Blocking scenes. Used zones x46.* Special thanks: Nick007, BodoiCuHo, v0danh, taker0704, riverstore, riverhd, Friday, AraGorN, NOiZE and my friends !Source | TayTO


    MI

    GeneralUnique ID : 252913819276344688187901270822169844787 (0xBE456E06AD0489A7B87375DA6DE79C33)Complete name : S:\На хранении\Убийца (2015. Sicario).mkvFormat : MatroskaFormat version : Version 2File size : 18.8 GiBDuration : 2h 1mnOverall bit rate : 22.2 MbpsMovie name : Release for RuTrackerEncoded date : UTC 2016-03-16 20:21:46Writing application : mkvmerge v4.9.1 ('Ich will') сборка от Jul 11 2011 23:53:15Writing library : libebml v1.2.1 + libmatroska v1.1.1Cover : YesAttachments : Cover.jpg
    VideoID : 1Format : AVCFormat/Info : Advanced Video CodecFormat profile : High@L4.1Format settings, CABAC : YesFormat settings, ReFrames : 5 framesCodec ID : V_MPEG4/ISO/AVCDuration : 2h 1mnBit rate : 17.4 MbpsWidth : 1 920 pixelsHeight : 800 pixelsDisplay aspect ratio : 2.40:1Frame rate mode : ConstantFrame rate : 23.976 (24000/1001) fpsColor space : YUVChroma subsampling : 4:2:0Bit depth : 8 bitsScan type : ProgressiveBits/(Pixel*Frame) : 0.474Stream size : 14.8 GiB (79%)Title : Sicario 2015 PROPER 1080p BluRay DD-EX x264-TayTOWriting library : x264 core 142 r2431+42 c69a006 tMod [8-bit@all X86_64]Encoding settings : cabac=1 / ref=5 / deblock=1:-3:-3 / analyse=0x3:0x133 / me=umh / subme=11 / psy=1 / fade_compensate=0.00 / psy_rd=1.00:0.00 / mixed_ref=1 / me_range=32 / chroma_me=1 / trellis=2 / 8x8dct=1 / cqm=0 / deadzone=21,11 / fast_pskip=0 / chroma_qp_offset=-2 / threads=12 / lookahead_threads=3 / sliced_threads=0 / nr=0 / decimate=0 / interlaced=0 / bluray_compat=0 / constrained_intra=0 / fgo=0 / bframes=11 / b_pyramid=2 / b_adapt=2 / b_bias=0 / direct=3 / weightb=1 / open_gop=0 / weightp=2 / keyint=250 / keyint_min=23 / scenecut=40 / intra_refresh=0 / rc_lookahead=60 / rc=crf / mbtree=0 / crf=15.9000 / qcomp=0.65 / qpmin=0:0:0 / qpmax=69:69:69 / qpstep=4 / vbv_maxrate=62500 / vbv_bufsize=78125 / crf_max=0.0 / nal_hrd=none / filler=0 / ip_ratio=1.24 / pb_ratio=1.18 / aq=3:0.75 / aq-sensitivity=10.00 / aq-factor=1.00:1.00:1.00 / aq2=0 / aq3=0 / zones=70,533,crf=14/555,983,crf=14/1800,2106,crf=15/2510,2842,crf=14.5/2999,5604,crf=14.5/5854,6000,crf=15/9938,10413,crf=15/29474,29575,crf=15/29678,29794,crf=15/45020,45250,crf=14.9/45768,45938,crf=14.9/49398,49494,crf=15/54140,54188,crf=12/65241,76450,crf=15/79059,79156,crf=14.9/83346,83563,crf=12/83630,83840,crf=13.9/84235,84583,crf=12/85235,85402,crf=13/92965,98238,crf=15/98495,98978,crf=14.5/99806,99898,crf=14.5/100077,100800,crf=15/100869,101011,crf=13.9/101174,101344,crf=13.9/103679,107247,crf=13.5/113210,113380,crf=14.5/118151,118370,crf=14.4/119450,122190,crf=13.9/122426,122695,crf=13.5/123921,124141,crf=13.5/124155,124276,crf=14/124746,125064,crf=12.9/125139,125557,crf=13.9/125952,126705,crf=14/126706,127761,crf=12.9/127762,128700,crf=14.5/129791,129991,crf=14.5/132579,144250,crf=14.5/144251,144312,crf=12.9/151266,151470,crf=15/152740,153125,crf=15/153441,153675,crf=15/165745,174386,crf=19/174387,174501,crf=13/174502,174552,crf=19Language : EnglishDefault : YesForced : NoColor range : LimitedMatrix coefficients : BT.709
    Audio #1ID : 2Format : AC-3Format/Info : Audio Coding 3Mode extension : CM (complete main)Format settings, Endianness : BigCodec ID : A_AC3Duration : 2h 1mnBit rate mode : ConstantBit rate : 384 KbpsChannel(s) : 6 channelsChannel positions : Front: L C R, Side: L R, LFESampling rate : 48.0 KHzFrame rate : 31.250 fps (1536 spf)Compression mode : LossyStream size : 333 MiB (2%)Title : ДубляжLanguage : RussianDefault : YesForced : No
    Audio #2ID : 3Format : DTSFormat/Info : Digital Theater SystemsMode : 16Format settings, Endianness : BigCodec ID : A_DTSDuration : 2h 1mnBit rate mode : ConstantBit rate : 1 509 KbpsChannel(s) : 6 channelsChannel positions : Front: L C R, Side: L R, LFESampling rate : 48.0 KHzFrame rate : 93.750 fps (512 spf)Bit depth : 24 bitsCompression mode : LossyStream size : 1.28 GiB (7%)Title : Алексей "Doctor_Joker" МатвеевLanguage : RussianDefault : NoForced : No
    Audio #3ID : 4Format : AC-3Format/Info : Audio Coding 3Mode extension : CM (complete main)Format settings, Endianness : BigCodec ID : A_AC3Duration : 2h 1mnBit rate mode : ConstantBit rate : 448 KbpsChannel(s) : 6 channelsChannel positions : Front: L C R, Side: L R, LFESampling rate : 48.0 KHzFrame rate : 31.250 fps (1536 spf)Compression mode : LossyStream size : 389 MiB (2%)Title : Дмитрий Есарев (ненормативный)Language : RussianDefault : NoForced : No
    Audio #4ID : 5Format : AC-3Format/Info : Audio Coding 3Mode extension : CM (complete main)Format settings, Endianness : BigCodec ID : A_AC3Duration : 2h 1mnBit rate mode : ConstantBit rate : 448 KbpsChannel(s) : 6 channelsChannel positions : Front: L C R, Side: L R, LFESampling rate : 48.0 KHzFrame rate : 31.250 fps (1536 spf)Compression mode : LossyStream size : 389 MiB (2%)Title : Дмитрий Есарев (цензурный)Language : RussianDefault : NoForced : No
    Audio #5ID : 6Format : DTSFormat/Info : Digital Theater SystemsMode : 16Format settings, Endianness : BigCodec ID : A_DTSDuration : 2h 1mnBit rate mode : ConstantBit rate : 1 509 KbpsChannel(s) : 6 channelsChannel positions : Front: L C R, Side: L R, LFESampling rate : 48.0 KHzFrame rate : 93.750 fps (512 spf)Bit depth : 24 bitsCompression mode : LossyStream size : 1.28 GiB (7%)Language : EnglishDefault : NoForced : No
    Text #1ID : 7Format : UTF-8Codec ID : S_TEXT/UTF8Codec ID/Info : UTF-8 Plain TextTitle : forcedLanguage : RussianDefault : YesForced : No
    Text #2ID : 8Format : UTF-8Codec ID : S_TEXT/UTF8Codec ID/Info : UTF-8 Plain TextTitle : Алексей "Doctor_Joker" МатвеевLanguage : RussianDefault : NoForced : No
    Text #3ID : 9Format : UTF-8Codec ID : S_TEXT/UTF8Codec ID/Info : UTF-8 Plain TextTitle : voronineLanguage : RussianDefault : NoForced : No
    Text #4ID : 10Format : UTF-8Codec ID : S_TEXT/UTF8Codec ID/Info : UTF-8 Plain TextTitle : voronine SDHLanguage : RussianDefault : NoForced : No
    Text #5ID : 11Format : UTF-8Codec ID : S_TEXT/UTF8Codec ID/Info : UTF-8 Plain TextTitle : ForcedLanguage : EnglishDefault : NoForced : No
    Text #6ID : 12Format : UTF-8Codec ID : S_TEXT/UTF8Codec ID/Info : UTF-8 Plain TextLanguage : EnglishDefault : NoForced : No
    Text #7ID : 13Format : UTF-8Codec ID : S_TEXT/UTF8Codec ID/Info : UTF-8 Plain TextTitle : SDHLanguage : EnglishDefault : NoForced : No
    Menu00:00:00.000 : en:Chapter 100:07:14.350 : en:Chapter 200:12:55.107 : en:Chapter 300:20:04.369 : en:Chapter 400:25:24.814 : en:Chapter 500:32:11.596 : en:Chapter 600:39:24.820 : en:Chapter 700:46:15.314 : en:Chapter 800:53:24.576 : en:Chapter 901:01:40.321 : en:Chapter 1001:10:49.119 : en:Chapter 1101:18:02.886 : en:Chapter 1201:30:59.370 : en:Chapter 1301:36:57.770 : en:Chapter 1401:47:42.038 : en:Chapter 1501:54:12.804 : en:Chapter 16
    Скриншоты

    Зеркало


    Цитата:
    Цитата:

    • Дубляж с iTunes.
    • Перевод Дмитрия Есарева доступен благодаря: mv73, dikii, mihey10, DREADG, napaHouk, shurikkein, -ALCASTER-, nortonn, Skazhutin. Работа со звуком mihaildns.
    • Перевод Doctor_Joker доступен благодаря заказу будулайроманов, работа со звуком Переводман.
    • Сохранены оригинальные чаптеры как на Blu-ray.
    Скачать .torrent

    Скачать торрент-файл бесплатно и на максимальной скорости!

    Как скачивать? · Что такое торрент? · Рейтинг и ограничения

    !ВНИМАНИЕ!
    Сайт не распространяет и не хранит электронные версии произведений, а занимается лишь лишь предоставлением доступа к создаваемому пользователями каталогу ссылок на торрент-файлы, которые содержат только списки хеш-сумм, убедительная просьба с жалобами обращаться напрямую к пользователю. Файлы для обмена на трекере предоставлены пользователями сайта, и администрация не несёт ответственности за их содержание. Просьба не заливать файлы, защищенные авторскими правами, а также файлы нелегального содержания!


    _________________
    [Профиль] [ЛС]
    Показать сообщения:    
    Ответить на тему

    Текущее время: Сегодня, в 18:22

    Часовой пояс: GMT + 2



    Вы не можете начинать темы
    Вы не можете отвечать на сообщения
    Вы не можете редактировать свои сообщения
    Вы не можете удалять свои сообщения
    Вы не можете голосовать в опросах
    Вы не можете прикреплять файлы к сообщениям
    Вы не можете скачивать файлы