BitTorrentTracker PerecTracker.org
BitTorrentTracker PerecTracker.org
    
Регистрация  ·  Вход
 
 · 
Забыли пароль?

  • Всё могу / Absolutely Anything (Терри Джонс / Terry Jones) [2015, Великобритания, США, фантастика, комедия, BDRip 720p] Dub (iTunes) + Original Eng + Sub rus, eng

    Ответить на тему
     
    Автор Сообщение

    Light

    Создавать темы 17-Мар-2016 13:05

           

    [Цитировать]

    Всё могу / Absolutely Anything-Страна: Великобритания, США
    Жанр: фантастика, комедия
    Год выпуска: 2015
    Продолжительность: 01:25:30
    Перевод: Профессиональный (дублированный) [iTunes]
    Субтитры: русские (форсированные), английские
    Оригинальная дорожка: английский
    Главы: есть
    Режиссер: Терри Джонс / Terry Jones
    В ролях: Саймон Пегг / Simon Pegg (Neil), Кейт Бекинсейл / Kate Beckinsale (Catherine), Санджив Бхаскар / Sanjeev Bhaskar (Ray), Роб Риггл / Rob Riggle (Grant), Роберт Баферст / Robert Bathurst (James Cleverill), Эдди Иззард / Eddie Izzard (Headmaster), Джоанна Ламли / Joanna Lumley (Fenella), Марианн Олдхэм / Marianne Oldham (Rosie)-Описание: Злобные инопланетяне, собираясь уничтожить Землю, дают ей последний шанс — наделяют учителя-неудачника Нила Кларка способностью исполнять любые желания. Он бы мог положить конец войнам или воскресить величайшие умы всех времен. Вот только как заманчиво: стать президентом США, соблазнить неприступную красотку или заставить заговорить собственного пса. Спасет ли Нил Кларк землю или устроит полный беспредел?--Качество видео: BDRip 720p | L
    Формат видео: MKV
    Видео: MPEG-4 AVC Video ~6423 kbps 1280 x 536 / 23,976 fps / 2.40:1 / High Profile 4.1
    Аудио:
    Русский: 48 kHz, AC3 Dolby Digital, 3/2 (L,C,R,l,r) + LFE ch, ~384 kbps
    Английский: 48 kHz, DTS, 3/2 (L,C,R,l,r) + LFE ch, ~1509.00 kbps avg
    Формат субтитров: softsub (SRT)
    Скриншоты

    MediaInfo

    : 239793352343951171134028586741996505390 (0xB466850FEFBD863AB2A70110CC34C92E)
    Полное имя                               : D:\L#TNClub\Absolutely.Anything.2015.BluRay.720p.DD.5.1.x264-L.mkv
    Формат                                   : Matroska
    Версия формата                           : Version 4 / Version 2
    Размер файла                             : 4,53 Гбайт
    Продолжительность                        : 1 ч. 25 м.
    Общий поток                              : 7578 Кбит/сек
    Название фильма                          : Absolutely.Anything.2015.BluRay.720p.DD5.1.x264-L
    Дата кодирования                         : UTC 2016-03-17 05:02:20
    Программа кодирования                    : mkvmerge v7.7.0 ('Six Voices') 32bit built on Feb 28 2015 23:23:00
    Библиотека кодирования                   : libebml v1.3.1 + libmatroska v1.4.2
    Обложка                                  : Yes
    Attachments                              : cover.png
    Видео
    Идентификатор                            : 1
    Формат                                   : AVC
    Формат/Информация                        : Advanced Video Codec
    Профиль формата                          : High@L4.1
    Параметр CABAC формата                   : Да
    Параметр ReFrames формата                : 12 кадров
    Идентификатор кодека                     : V_MPEG4/ISO/AVC
    Продолжительность                        : 1 ч. 25 м.
    Битрейт                                  : 6423 Кбит/сек
    Ширина                                   : 1280 пикселей
    Высота                                   : 536 пикселей
    Соотношение сторон                       : 2,40:1
    Режим частоты кадров                     : Постоянный
    Частота кадров                           : 23,976 (24000/1001) кадра/сек
    Цветовое пространство                    : YUV
    Субдискретизация насыщенности            : 4:2:0
    Битовая глубина                          : 8 бит
    Тип развёртки                            : Прогрессивная
    Бит/(Пиксели*Кадры)                      : 0.390
    Размер потока                            : 3,84 Гбайт (85%)
    Заголовок                                : Absolutely.Anything.2015.BluRay.720p.DD5.1.x264-L
    Библиотека кодирования                   : x264 core 146 r2538 121396c
    Настройки программы                      : cabac=1 / ref=12 / deblock=1:-3:-2 / analyse=0x3:0x133 / me=umh / subme=11 / psy=1 / psy_rd=1.05:0.10 / mixed_ref=1 / me_range=48 / chroma_me=1 / trellis=2 / 8x8dct=1 / cqm=0 / deadzone=21,11 / fast_pskip=0 / chroma_qp_offset=-4 / threads=6 / lookahead_threads=1 / sliced_threads=0 / nr=0 / decimate=1 / interlaced=0 / bluray_compat=0 / constrained_intra=0 / bframes=8 / b_pyramid=2 / b_adapt=2 / b_bias=0 / direct=1 / weightb=1 / open_gop=0 / weightp=2 / keyint=230 / keyint_min=21 / scenecut=40 / intra_refresh=0 / rc_lookahead=60 / rc=crf / mbtree=0 / crf=15.5 / qcomp=0.70 / qpmin=0 / qpmax=69 / qpstep=4 / vbv_maxrate=30000 / vbv_bufsize=40000 / crf_max=0.0 / nal_hrd=none / filler=0 / ip_ratio=1.35 / pb_ratio=1.25 / aq=2:0.90
    Язык                                     : English
    Default                                  : Да
    Forced                                   : Нет
    Аудио #1
    Идентификатор                            : 2
    Формат                                   : AC-3
    Формат/Информация                        : Audio Coding 3
    Расширение режима                        : CM (complete main)
    Параметр Endianness формата              : Big
    Идентификатор кодека                     : A_AC3
    Продолжительность                        : 1 ч. 25 м.
    Вид битрейта                             : Постоянный
    Битрейт                                  : 384 Кбит/сек
    Каналы                                   : 6 каналов
    Расположение каналов                     : Front: L C R, Side: L R, LFE
    Частота                                  : 48,0 КГц
    Частота кадров                           : 31,250 кадров/сек (1536 spf)
    Метод сжатия                             : С потерями
    Размер потока                            : 235 Мбайт (5%)
    Заголовок                                : DD5.1.@384
    Язык                                     : Russian
    Default                                  : Да
    Forced                                   : Нет
    Аудио #2
    Идентификатор                            : 3
    Формат                                   : DTS
    Формат/Информация                        : Digital Theater Systems
    Режим                                    : 16
    Параметр Endianness формата              : Big
    Идентификатор кодека                     : A_DTS
    Продолжительность                        : 1 ч. 25 м.
    Вид битрейта                             : Постоянный
    Битрейт                                  : 768 Кбит/сек
    Каналы                                   : 6 каналов
    Расположение каналов                     : Front: L C R, Side: L R, LFE
    Частота                                  : 48,0 КГц
    Частота кадров                           : 93,750 кадра/сек (512 spf)
    Битовая глубина                          : 24 бит
    Метод сжатия                             : С потерями
    Размер потока                            : 470 Мбайт (10%)
    Заголовок                                : DTS5.1@1509
    Язык                                     : English
    Default                                  : Нет
    Forced                                   : Нет
    Текст #1
    Идентификатор                            : 4
    Формат                                   : UTF-8
    Идентификатор кодека                     : S_TEXT/UTF8
    Идентификатор кодека/Информация          : UTF-8 Plain Text
    Продолжительность                        : 1 ч. 11 м.
    Битрейт                                  : 1 бит/сек
    Count of elements                        : 15
    Размер потока                            : 770 байт (0%)
    Заголовок                                : Forced
    Язык                                     : Russian
    Default                                  : Да
    Forced                                   : Нет
    Текст #2
    Идентификатор                            : 5
    Формат                                   : UTF-8
    Идентификатор кодека                     : S_TEXT/UTF8
    Идентификатор кодека/Информация          : UTF-8 Plain Text
    Продолжительность                        : 1 ч. 22 м.
    Битрейт                                  : 82 бит/сек
    Count of elements                        : 1362
    Размер потока                            : 49,8 Кбайт (0%)
    Язык                                     : English
    Default                                  : Нет
    Forced                                   : Нет
    Меню
    00:00:00.000                             : en:00:00:00.000
    00:03:10.941                             : en:00:03:10.941
    00:08:13.827                             : en:00:08:13.827
    00:14:41.631                             : en:00:14:41.631
    00:32:59.102                             : en:00:32:59.102
    00:40:15.580                             : en:00:40:15.580
    00:53:42.886                             : en:00:53:42.886
    01:02:15.815                             : en:01:02:15.815
    01:06:17.682                             : en:01:06:17.682
    01:11:51.098                             : en:01:11:51.098
    01:14:56.117                             : en:01:14:56.117
    01:21:25.547                             : en:01:21:25.547
    x264 [info]: frame I:1198 Avg QP:13.99 size:139390
    x264 [info]: frame P:25112 Avg QP:15.42 size: 58854
    x264 [info]: frame B:96690 Avg QP:17.18 size: 25583
    x264 [info]: consecutive B-frames: 1.6% 1.2% 5.8% 19.9% 19.7% 43.8% 4.6% 1.2% 2.2%
    Скачать .torrent

    Скачать торрент-файл бесплатно и на максимальной скорости!

    Как скачивать? · Что такое торрент? · Рейтинг и ограничения

    !ВНИМАНИЕ!
    Сайт не распространяет и не хранит электронные версии произведений, а занимается лишь лишь предоставлением доступа к создаваемому пользователями каталогу ссылок на торрент-файлы, которые содержат только списки хеш-сумм, убедительная просьба с жалобами обращаться напрямую к пользователю. Файлы для обмена на трекере предоставлены пользователями сайта, и администрация не несёт ответственности за их содержание. Просьба не заливать файлы, защищенные авторскими правами, а также файлы нелегального содержания!


    _________________
    [Профиль] [ЛС]
    Показать сообщения:    
    Ответить на тему

    Текущее время: Сегодня, в 22:21

    Часовой пояс: GMT + 2



    Вы не можете начинать темы
    Вы не можете отвечать на сообщения
    Вы не можете редактировать свои сообщения
    Вы не можете удалять свои сообщения
    Вы не можете голосовать в опросах
    Вы не можете прикреплять файлы к сообщениям
    Вы не можете скачивать файлы