BitTorrentTracker PerecTracker.org
BitTorrentTracker PerecTracker.org
    
Регистрация  ·  Вход
 
 · 
Забыли пароль?

  • Отречённый / Заброшенный / Forsaken (Джон Кассар / Jon Cassar) [2015, США, Драма, вестерн, WEB-DLRip] DVO + Original (Eng) + Sub (Rus)

    Ответить на тему
     
    Автор Сообщение

    Light

    Создавать темы 17-Мар-2016 00:29

           

    [Цитировать]

    Отречённый / Заброшенный / Forsaken-Год выхода: 2015
    Выпущено: Канада, Франция, США / Minds Eye Entertainment
    Жанр: драма, вестерн
    Продолжительность: 01:29:46
    Перевод: Любительский (двухголосый закадровый) | datynet & Galina Vasyukova |
    Субтитры: Русские (Skorobea - Notabenoid) (внешние srt*)
    Оригинальная аудиодорожка: английская-Режиссер:
    Джон Кассар / Jon Cassar-В ролях:
    Деми Мур (Mary-Alice Watson), Кифер Сазерленд (John Henry Clayton), Дональд Сазерленд (Rev. Clayton), Брайан Кокс (James McCurdy), Майкл Уинкотт (Dave Turner), Лэндон Либуарон (Will Pickard), Шиван Уильямс (Emily Chadwick), Джонни Рис (Tom Watson), Аарон Пул (Frank Tillman), Али Уэбб (Rachel Chadwick), Уэсли Морган (Sam), Майкл Терриоль (Doc Miller), Мария Фернандес (Pregnant Chinese Lady), Кристофер Розамунд (Daniel Petterson)-О фильме:
    Наёмный убийца Джон Генри оставляет своё кровавое ремесло и возвращается в родной город, надеясь восстановить отношения с собственным отцом. Вместе с тем местная банда терроризирует город.-Релиз групп
    | | IMDB | КиноПоиск | Сэмпл |-Качество: WEB-DLRip [Forsaken.2015.1080p.WEB-DL.DD5.1.H264-FGT]
    Формат: AVI
    Видео: 704x288 (2.44:1), 23.976 fps, XviD build 67 ~1920 kbps avg, 0.40 bit/pixel
    Аудио #1: 48 kHz, AC3 Dolby Digital, 2/0 (L,R) ch, ~192 kbps avg (RUS)
    Аудио #2: 48 kHz, AC3 Dolby Digital, 2/0 (L,R) ch, ~192 kbps avg (ENG)-

    Скриншоты

    -

    MediaInfo

    General
    Complete name                            : D:\Forsaken_2015_WEB-DLRip_DVO_by_Dalemake.avi
    Format                                   : AVI
    Format/Info                              : Audio Video Interleave
    File size                                : 1.45 GiB
    Duration                                 : 1h 29mn
    Overall bit rate                         : 2 320 Kbps
    Writing application                      : VirtualDubMod 1.5.10.3 | www.virtualdub-fr.org || (build 2550/release)
    Writing library                          : VirtualDubMod build 2550/release
    Video
    ID                                       : 0
    Format                                   : MPEG-4 Visual
    Format profile                           : Advanced Simple@L5
    Format settings, BVOP                    : 1
    Format settings, QPel                    : No
    Format settings, GMC                     : No warppoints
    Format settings, Matrix                  : Custom
    Codec ID                                 : XVID
    Codec ID/Hint                            : XviD
    Duration                                 : 1h 29mn
    Bit rate                                 : 1 921 Kbps
    Width                                    : 704 pixels
    Height                                   : 288 pixels
    Display aspect ratio                     : 2.40:1
    Frame rate                               : 23.976 (23976/1000) fps
    Color space                              : YUV
    Chroma subsampling                       : 4:2:0
    Bit depth                                : 8 bits
    Scan type                                : Progressive
    Compression mode                         : Lossy
    Bits/(Pixel*Frame)                       : 0.395
    Stream size                              : 1.20 GiB (83%)
    Writing library                          : XviD 67
    Audio #1
    ID                                       : 1
    Format                                   : AC-3
    Format/Info                              : Audio Coding 3
    Mode extension                           : CM (complete main)
    Format settings, Endianness              : Big
    Codec ID                                 : 2000
    Duration                                 : 1h 29mn
    Bit rate mode                            : Constant
    Bit rate                                 : 192 Kbps
    Channel(s)                               : 2 channels
    Channel positions                        : Front: L R
    Sampling rate                            : 48.0 KHz
    Frame rate                               : 31.250 fps (1536 spf)
    Compression mode                         : Lossy
    Stream size                              : 123 MiB (8%)
    Alignment                                : Split accross interleaves
    Interleave, duration                     : 42 ms (1.00 video frame)
    Interleave, preload duration             : 500 ms
    Audio #2
    ID                                       : 2
    Format                                   : AC-3
    Format/Info                              : Audio Coding 3
    Mode extension                           : CM (complete main)
    Format settings, Endianness              : Big
    Codec ID                                 : 2000
    Duration                                 : 1h 29mn
    Bit rate mode                            : Constant
    Bit rate                                 : 192 Kbps
    Channel(s)                               : 2 channels
    Channel positions                        : Front: L R
    Sampling rate                            : 48.0 KHz
    Frame rate                               : 31.250 fps (1536 spf)
    Compression mode                         : Lossy
    Stream size                              : 123 MiB (8%)
    Alignment                                : Split accross interleaves
    Interleave, duration                     : 42 ms (1.00 video frame)
    Interleave, preload duration             : 500 ms
    -
    Скачать .torrent

    Скачать торрент-файл бесплатно и на максимальной скорости!

    Как скачивать? · Что такое торрент? · Рейтинг и ограничения

    !ВНИМАНИЕ!
    Сайт не распространяет и не хранит электронные версии произведений, а занимается лишь лишь предоставлением доступа к создаваемому пользователями каталогу ссылок на торрент-файлы, которые содержат только списки хеш-сумм, убедительная просьба с жалобами обращаться напрямую к пользователю. Файлы для обмена на трекере предоставлены пользователями сайта, и администрация не несёт ответственности за их содержание. Просьба не заливать файлы, защищенные авторскими правами, а также файлы нелегального содержания!


    _________________
    [Профиль] [ЛС]
    Показать сообщения:    
    Ответить на тему

    Текущее время: Сегодня, в 12:03

    Часовой пояс: GMT + 2



    Вы не можете начинать темы
    Вы не можете отвечать на сообщения
    Вы не можете редактировать свои сообщения
    Вы не можете удалять свои сообщения
    Вы не можете голосовать в опросах
    Вы не можете прикреплять файлы к сообщениям
    Вы не можете скачивать файлы