BitTorrentTracker PerecTracker.org
BitTorrentTracker PerecTracker.org
    
Регистрация  ·  Вход
 
 · 
Забыли пароль?

  • Иван Царевич и Серый Волк 3 (Дарина Шмидт) [2015, Мультфильм, приключения, семейный, BDRip]

    Ответить на тему
     
    Автор Сообщение

    Flirldrerve

    Создавать темы 16-Мар-2016 11:19

           

    [Цитировать]

    Иван Царевич и Серый Волк 3-Год выпуска: 2015
    Выпущено: Россия / Кинокомпания СТВ, Анимационная студия Мельница
    Жанр: мультфильм, комедия, приключения, фэнтези
    Продолжительность: 01:17:06
    Перевод: Не требуется |Лицензия|
    Субтитры: нет-Режиссёр:
    Дарина Шмидт-В ролях:
    Никита Ефремов, Иван Охлобыстин, Михаил Боярский, Артур Смольянинов, Татьяна Бунина, Михаил Хрусталев, Дмитрий Высоцкий, Олег Куликович, Анатолий Петров, Роман Никитин-Описание:
    Царь Тридевятого царства, в честь своего 150-летия решил, что с него хватит — пора на заслуженный отдых. «Я устал. Я ухожу», — заявил самодержец и с удочкой и ведёрком удалился в деревенскую глушь. А оберегать государство остались Иван с Серым Волком. Вот только Василиса, жена Ивана, заявила, что свадебного путешествия у неё не было, заграницу она не видела, «постить» в инстаграм решительно нечего и вообще.
    Иван спорить не стал, а вместе с Василисой, Котом — ученым и Серым Волком, погрузился на ковер-самолет и отправился в путь. А за главного в стране герои оставили самое обычное огородное пугало… Но пока компания шаталась по Миланам и Парижам, Пугало ожило и начало наводить свои порядки в Тридевятом царстве…- | Сэмпл |-Качество: BDRip [Blu-ray Disc | 1080p | HDCLUB]
    Формат: AVI
    Видео: 704x400 (1.76:1), 24.000 fps, XviD build 67 ~2238 kbps avg, 0.33 bit/pixel
    Аудио: 48 kHz, AC3 Dolby Digital, 3/2 (L,C,R,l,r) + LFE ch, ~448 kbps avg
    -

    Скриншоты

    MediaInfo

    General
    Complete name                            : D:\Ivan_Carevich_i_seryi_volk_3_2015_BDRip_by_Dalemake.avi
    Format                                   : AVI
    Format/Info                              : Audio Video Interleave
    File size                                : 1.45 GiB
    Duration                                 : 1h 17mn
    Overall bit rate                         : 2 696 Kbps
    Writing application                      : VirtualDubMod 1.5.10.3 | www.virtualdub-fr.org || (build 2550/release)
    Writing library                          : VirtualDubMod build 2550/release
    Video
    ID                                       : 0
    Format                                   : MPEG-4 Visual
    Format profile                           : Advanced Simple@L5
    Format settings, BVOP                    : 1
    Format settings, QPel                    : No
    Format settings, GMC                     : No warppoints
    Format settings, Matrix                  : Custom
    Codec ID                                 : XVID
    Codec ID/Hint                            : XviD
    Duration                                 : 1h 17mn
    Bit rate                                 : 2 239 Kbps
    Width                                    : 704 pixels
    Height                                   : 400 pixels
    Display aspect ratio                     : 16:9
    Frame rate                               : 24.000 fps
    Color space                              : YUV
    Chroma subsampling                       : 4:2:0
    Bit depth                                : 8 bits
    Scan type                                : Progressive
    Compression mode                         : Lossy
    Bits/(Pixel*Frame)                       : 0.331
    Stream size                              : 1.21 GiB (83%)
    Writing library                          : XviD 67
    Audio
    ID                                       : 1
    Format                                   : AC-3
    Format/Info                              : Audio Coding 3
    Mode extension                           : CM (complete main)
    Format settings, Endianness              : Big
    Codec ID                                 : 2000
    Duration                                 : 1h 17mn
    Bit rate mode                            : Constant
    Bit rate                                 : 448 Kbps
    Channel(s)                               : 6 channels
    Channel positions                        : Front: L C R, Side: L R, LFE
    Sampling rate                            : 48.0 KHz
    Frame rate                               : 31.250 fps (1536 spf)
    Compression mode                         : Lossy
    Stream size                              : 247 MiB (17%)
    Alignment                                : Split accross interleaves
    Interleave, duration                     : 42 ms (1.00 video frame)
    Interleave, preload duration             : 500 ms
    -
    Скачать .torrent

    Скачать торрент-файл бесплатно и на максимальной скорости!

    Как скачивать? · Что такое торрент? · Рейтинг и ограничения

    !ВНИМАНИЕ!
    Сайт не распространяет и не хранит электронные версии произведений, а занимается лишь лишь предоставлением доступа к создаваемому пользователями каталогу ссылок на торрент-файлы, которые содержат только списки хеш-сумм, убедительная просьба с жалобами обращаться напрямую к пользователю. Файлы для обмена на трекере предоставлены пользователями сайта, и администрация не несёт ответственности за их содержание. Просьба не заливать файлы, защищенные авторскими правами, а также файлы нелегального содержания!


    _________________
    [Профиль] [ЛС]
    Показать сообщения:    
    Ответить на тему

    Текущее время: Сегодня, в 20:49

    Часовой пояс: GMT + 2



    Вы не можете начинать темы
    Вы не можете отвечать на сообщения
    Вы не можете редактировать свои сообщения
    Вы не можете удалять свои сообщения
    Вы не можете голосовать в опросах
    Вы не можете прикреплять файлы к сообщениям
    Вы не можете скачивать файлы