BitTorrentTracker PerecTracker.org
BitTorrentTracker PerecTracker.org
    
Регистрация  ·  Вход
 
 · 
Забыли пароль?

  • Кто я / Серии: 1-4 из 4 (Алексей Карелин) [2015, мелодрама, HDTV (1080i)]

    Ответить на тему
     
    Автор Сообщение

    rechyn

    Создавать темы 16-Мар-2016 00:01

           

    [Цитировать]

    Кто я--Год выпуска: 2015
    Производство: "Паламеда Продакшн, Продюсерский центр "Фабула""
    Жанр: мелодрама
    Продолжительность: 00:45:00
    Субтитры: нет-Режиссёр: Алексей Карелин-В ролях:
    Олеся Фаттахова, Владимир Фекленко, Святослав Астрамович, Ольга Сизова, Валерия Мельник,
    Тамара Миронова, Иван Павлов, Александр Павлов (IV), Алеся Пуховая, Инна Коляда-Описание:
    Лада пережила страшную аварию, после которой ее память практически не восстановилась. Ее пожалела и взяла в дом владелица торгового центра, около которого и случилась авария. Лада была счастлива — кому она нужна, необразованная детдомовка? И работать бы ей вечно, помогая по хозяйству, но внезапно вернулся после нескольких лет отсутствия сын хозяйки… Артем помог Ладе вспомнить, что у нее были родители. Но где они сейчас, и кому было выгодно, чтобы девушка погибла или потеряла память?-Все раздачи сериала-Возраст: 12+-Качество: HDTV (1080i)
    Формат: TS
    Видео кодек: AVC
    Аудио кодек: MP2

    Видео: AVC, 1920 х 1080 (16:9), 25,000 кадр/сек, 7 865 Кбит/сек, 0.152 bit/pixel
    Аудио: MP2, 48000 Hz, 192 Kbps, 2 канала
    -

    MediaInfo

    General
    ID : 1 (0x1)
    Complete name : D:\Раздачи\Кто я (1-4 серии из 4) HDTV (1080i)\Kto.ja.02.2015.HDTV.1080i.ts
    Format : MPEG-TS
    File size : 4.91 GiB
    Duration : 1h 22mn
    Overall bit rate mode : Variable
    Overall bit rate : 8 478 Kbps
    Video
    ID : 2911 (0xB5F)
    Menu ID : 1119 (0x45F)
    Format : AVC
    Format/Info : Advanced Video Codec
    Format profile : High@L4
    Format settings, CABAC : Yes
    Format settings, ReFrames : 4 frames
    Codec ID : 27
    Duration : 1h 22mn
    Bit rate : 7 865 Kbps
    Width : 1 920 pixels
    Height : 1 080 pixels
    Display aspect ratio : 16:9
    Frame rate : 25.000 fps
    Color space : YUV
    Chroma subsampling : 4:2:0
    Bit depth : 8 bits
    Scan type : MBAFF
    Scan type, store method : Interleaved fields
    Scan order : Top Field First
    Bits/(Pixel*Frame) : 0.152
    Stream size : 4.55 GiB (93%)
    Audio
    ID : 2912 (0xB60)
    Menu ID : 1119 (0x45F)
    Format : MPEG Audio
    Format version : Version 1
    Format profile : Layer 2
    Codec ID : 3
    Duration : 1h 22mn
    Bit rate mode : Constant
    Bit rate : 192 Kbps
    Channel(s) : 2 channels
    Sampling rate : 48.0 KHz
    Compression mode : Lossy
    Stream size : 114 MiB (2%)
    Language : Russian
    -

    Скриншоты сериала


    -
    Скачать .torrent

    Скачать торрент-файл бесплатно и на максимальной скорости!

    Как скачивать? · Что такое торрент? · Рейтинг и ограничения

    !ВНИМАНИЕ!
    Сайт не распространяет и не хранит электронные версии произведений, а занимается лишь лишь предоставлением доступа к создаваемому пользователями каталогу ссылок на торрент-файлы, которые содержат только списки хеш-сумм, убедительная просьба с жалобами обращаться напрямую к пользователю. Файлы для обмена на трекере предоставлены пользователями сайта, и администрация не несёт ответственности за их содержание. Просьба не заливать файлы, защищенные авторскими правами, а также файлы нелегального содержания!


    _________________
    [Профиль] [ЛС]
    Показать сообщения:    
    Ответить на тему

    Текущее время: Сегодня, в 00:05

    Часовой пояс: GMT + 2



    Вы не можете начинать темы
    Вы не можете отвечать на сообщения
    Вы не можете редактировать свои сообщения
    Вы не можете удалять свои сообщения
    Вы не можете голосовать в опросах
    Вы не можете прикреплять файлы к сообщениям
    Вы не можете скачивать файлы