Register  ·  Log in
Forgot password?

  • Кто я / Серии: 1-4 из 4 (Алексей Карелин) [2015, мелодрама, HDTV (1080i)]

    Reply to topic
    Author Message


    Post 16-Mar-2016 01:01



    Кто я--Год выпуска: 2015
    Производство: "Паламеда Продакшн, Продюсерский центр "Фабула""
    Жанр: мелодрама
    Продолжительность: 00:45:00
    Субтитры: нет-Режиссёр: Алексей Карелин-В ролях:
    Олеся Фаттахова, Владимир Фекленко, Святослав Астрамович, Ольга Сизова, Валерия Мельник,
    Тамара Миронова, Иван Павлов, Александр Павлов (IV), Алеся Пуховая, Инна Коляда-Описание:
    Лада пережила страшную аварию, после которой ее память практически не восстановилась. Ее пожалела и взяла в дом владелица торгового центра, около которого и случилась авария. Лада была счастлива — кому она нужна, необразованная детдомовка? И работать бы ей вечно, помогая по хозяйству, но внезапно вернулся после нескольких лет отсутствия сын хозяйки… Артем помог Ладе вспомнить, что у нее были родители. Но где они сейчас, и кому было выгодно, чтобы девушка погибла или потеряла память?-Все раздачи сериала-Возраст: 12+-Качество: HDTV (1080i)
    Формат: TS
    Видео кодек: AVC
    Аудио кодек: MP2

    Видео: AVC, 1920 х 1080 (16:9), 25,000 кадр/сек, 7 865 Кбит/сек, 0.152 bit/pixel
    Аудио: MP2, 48000 Hz, 192 Kbps, 2 канала


    ID : 1 (0x1)
    Complete name : D:\Раздачи\Кто я (1-4 серии из 4) HDTV (1080i)\Kto.ja.02.2015.HDTV.1080i.ts
    Format : MPEG-TS
    File size : 4.91 GiB
    Duration : 1h 22mn
    Overall bit rate mode : Variable
    Overall bit rate : 8 478 Kbps
    ID : 2911 (0xB5F)
    Menu ID : 1119 (0x45F)
    Format : AVC
    Format/Info : Advanced Video Codec
    Format profile : High@L4
    Format settings, CABAC : Yes
    Format settings, ReFrames : 4 frames
    Codec ID : 27
    Duration : 1h 22mn
    Bit rate : 7 865 Kbps
    Width : 1 920 pixels
    Height : 1 080 pixels
    Display aspect ratio : 16:9
    Frame rate : 25.000 fps
    Color space : YUV
    Chroma subsampling : 4:2:0
    Bit depth : 8 bits
    Scan type : MBAFF
    Scan type, store method : Interleaved fields
    Scan order : Top Field First
    Bits/(Pixel*Frame) : 0.152
    Stream size : 4.55 GiB (93%)
    ID : 2912 (0xB60)
    Menu ID : 1119 (0x45F)
    Format : MPEG Audio
    Format version : Version 1
    Format profile : Layer 2
    Codec ID : 3
    Duration : 1h 22mn
    Bit rate mode : Constant
    Bit rate : 192 Kbps
    Channel(s) : 2 channels
    Sampling rate : 48.0 KHz
    Compression mode : Lossy
    Stream size : 114 MiB (2%)
    Language : Russian

    Скриншоты сериала

    Download .torrent

    Download free and at maximum speed!

    How to Download? · What is a torrent? · Ratings and Limitations

    The site does not extend and does not store electronic(digital) versions of products, and only gives access to a reference catalogue created by users on torrent-files which contain only lists of the hash-sums, the earnest entreaty, with complaints(abuse) to access directly to the user. Files for an exchange on tracker are given by users of a site, and the administration does not bear the responsibility for their maintenance. The request to not fill in the files protected by copyrights, and also files of the illegal maintenance!

    [Profile] [PM]
    Display posts from previous:    
    Reply to topic

    The time now is: Today 01:42

    All times are GMT + 3 Hours

    You cannot post new topics in this forum
    You cannot reply to topics in this forum
    You cannot edit your posts in this forum
    You cannot delete your posts in this forum
    You cannot vote in polls in this forum
    You cannot attach files in this forum
    You cannot download files in this forum