BitTorrentTracker PerecTracker.org
BitTorrentTracker PerecTracker.org
    
Регистрация  ·  Вход
 
 · 
Забыли пароль?

  • Амитивилль 2: Одержимость / Amityville II: The Possession (Дамиано Дамиани / Damiano Damiani) [1982, США, Мексика, ужасы, BDRip 1080p] DVO (TV1000 Action) + AVO (Дольский) + Sub Eng + Original Eng

    Ответить на тему
     
    Автор Сообщение

    Flirldrerve

    Создавать темы 15-Мар-2016 23:17

           

    [Цитировать]

    Амитивилль 2: Одержимость / Amityville II: The Possession
    Страна: США, Мексика
    Жанр: ужасы
    Год выпуска: 1982
    Продолжительность: 01:44:31
    Перевод: Профессиональный (двухголосый закадровый) TV1000 Action
    Перевод 2: Авторский (одноголосый закадровый) Дольский
    Cубтитры: английские
    Оригинальная аудиодорожка: английский
    Режиссер: Дамиано Дамиани / Damiano Damiani
    В ролях: Джеймс Олсон, Берт Янг, Рутаня Олда, Джек Магнер, Эндрю Прайн, Дайан Франклин, Моузес Ганн, Тед Росс, Эрика Кац, Брент Кац
    Описание: Американская семья приезжает в дом, стоящий на месте бывшего индейского кладбища. Старший сын становится жертвой сверхъестественных сил, которые стремятся заставить его убить свою семью. Священник решает помочь мальчику справиться с темными силами.
    Сэмпл: http://sendfile.su/1214074
    Тип релиза: BDRip 1080p
    Контейнер: MKV
    Видео: 1920x1040 (1.85:1), 23.976 fps, AVC, ~20.0 Mbps, 0.418 bits/pixel
    Аудио: Russian, 48.0 KHz, AC3, 2 ch, 192 Kbps - DVO
    Аудио 2: Russian, 48.0 KHz, AC3, 2 ch, 192 Kbps - AVO
    Аудио 3: English, 48.0 KHz, AC3, 6 ch, 640 Kbps
    Формат субтитров: softsub (SRT)

    MediaInfo

    General
    Unique ID : 209544874561087626460607582773910978745 (0x9DA4DFF6E413CF1AB16507441C8C40B9)
    Complete name : C:\Torrent\Amityville.II.The.Possession.1982.1080p.BDRip.mkv
    Format : Matroska
    Format version : Version 4 / Version 2
    File size : 15.3 GiB
    Duration : 1h 44mn
    Overall bit rate : 21.0 Mbps
    Encoded date : UTC 2016-03-14 05:19:13
    Writing application : mkvmerge v7.4.0 ('Circles') 64bit built on Dec 12 2014 12:19:56
    Writing library : libebml v1.3.0 + libmatroska v1.4.1
    _STATISTICS_WRITING_APP : mkvmerge v7.4.0 ('Circles') 64bit built on Dec 12 2014 12:19:56
    _STATISTICS_WRITING_DATE_UTC : 2016-03-14 05:19:13
    _STATISTICS_TAGS : BPS DURATION NUMBER_OF_FRAMES NUMBER_OF_BYTES
    DURATION : 01:40:16.510000000
    NUMBER_OF_FRAMES : 1092
    NUMBER_OF_BYTES : 30333
    Video
    ID : 1
    Format : AVC
    Format/Info : Advanced Video Codec
    Format profile : High@L4.1
    Format settings, CABAC : Yes
    Format settings, ReFrames : 4 frames
    Codec ID : V_MPEG4/ISO/AVC
    Duration : 1h 44mn
    Bit rate : 20.0 Mbps
    Width : 1 920 pixels
    Height : 1 040 pixels
    Display aspect ratio : 1.85:1
    Frame rate mode : Constant
    Frame rate : 23.976 fps
    Color space : YUV
    Chroma subsampling : 4:2:0
    Bit depth : 8 bits
    Scan type : Progressive
    Bits/(Pixel*Frame) : 0.418
    Stream size : 14.3 GiB (93%)
    Title : Amityville.II.The.Possession.1982.1080p.BluRay.DD5.1.x264-HDMaNiAcS
    Writing library : x264 core 142 r2431+42 c69a006 tMod [8-bit@all X86_64]
    Encoding settings : cabac=1 / ref=4 / deblock=1:-3:-3 / analyse=0x3:0x113 / me=tesa / subme=11 / psy=1 / fade_compensate=0.00 / psy_rd=0.80:0.00 / mixed_ref=1 / me_range=32 / chroma_me=1 / trellis=2 / 8x8dct=1 / cqm=0 / deadzone=21,11 / fast_pskip=0 / chroma_qp_offset=-2 / threads=18 / lookahead_threads=3 / sliced_threads=0 / nr=0 / decimate=0 / interlaced=0 / bluray_compat=0 / constrained_intra=0 / fgo=0 / bframes=8 / b_pyramid=2 / b_adapt=2 / b_bias=0 / direct=3 / weightb=1 / open_gop=0 / weightp=2 / keyint=250 / keyint_min=23 / scenecut=40 / intra_refresh=0 / rc_lookahead=40 / rc=2pass / mbtree=0 / bitrate=20000 / ratetol=1.0 / qcomp=0.60 / qpmin=10:10:10 / qpmax=69:69:69 / qpstep=4 / cplxblur=20.0 / qblur=0.5 / vbv_maxrate=40000 / vbv_bufsize=30000 / nal_hrd=none / filler=0 / ip_ratio=1.35 / pb_ratio=1.10 / aq=4:0.60 / aq-sensitivity=10.00 / aq-factor=1.00:1.00:1.00 / aq2=0 / aq3=0
    Language : English
    Default : Yes
    Forced : No
    _STATISTICS_WRITING_APP : mkvmerge v7.4.0 ('Circles') 64bit built on Dec 12 2014 12:19:56
    _STATISTICS_WRITING_DATE_UTC : 2016-03-14 05:19:13
    _STATISTICS_TAGS : BPS DURATION NUMBER_OF_FRAMES NUMBER_OF_BYTES
    DURATION : 01:44:31.224000000
    NUMBER_OF_FRAMES : 150359
    NUMBER_OF_BYTES : 15674518372
    Audio #1
    ID : 2
    Format : AC-3
    Format/Info : Audio Coding 3
    Mode extension : CM (complete main)
    Format settings, Endianness : Big
    Codec ID : A_AC3
    Duration : 1h 44mn
    Bit rate mode : Constant
    Bit rate : 192 Kbps
    Channel(s) : 2 channels
    Channel positions : Front: L R
    Sampling rate : 48.0 KHz
    Bit depth : 16 bits
    Compression mode : Lossy
    Stream size : 144 MiB (1%)
    Title : DVO
    Language : Russian
    Default : Yes
    Forced : No
    Audio #2
    ID : 3
    Format : AC-3
    Format/Info : Audio Coding 3
    Mode extension : CM (complete main)
    Format settings, Endianness : Big
    Codec ID : A_AC3
    Duration : 1h 44mn
    Bit rate mode : Constant
    Bit rate : 192 Kbps
    Channel(s) : 2 channels
    Channel positions : Front: L R
    Sampling rate : 48.0 KHz
    Bit depth : 16 bits
    Compression mode : Lossy
    Stream size : 144 MiB (1%)
    Title : AVO
    Language : Russian
    Default : No
    Forced : No
    Audio #3
    ID : 4
    Format : AC-3
    Format/Info : Audio Coding 3
    Mode extension : CM (complete main)
    Format settings, Endianness : Big
    Codec ID : A_AC3
    Duration : 1h 44mn
    Bit rate mode : Constant
    Bit rate : 640 Kbps
    Channel(s) : 6 channels
    Channel positions : Front: L C R, Side: L R, LFE
    Sampling rate : 48.0 KHz
    Bit depth : 16 bits
    Compression mode : Lossy
    Stream size : 479 MiB (3%)
    Language : English
    Default : No
    Forced : No
    Text
    ID : 5
    Format : UTF-8
    Codec ID : S_TEXT/UTF8
    Codec ID/Info : UTF-8 Plain Text
    Title : SDH
    Language : English
    Default : No
    Forced : No
    Menu
    00:00:00.000 : en:00:00:00.000
    00:13:56.461 : en:00:13:56.461
    00:20:52.877 : en:00:20:52.877
    00:28:24.328 : en:00:28:24.328
    00:38:20.924 : en:00:38:20.924
    00:48:52.555 : en:00:48:52.555
    00:59:58.220 : en:00:59:58.220
    01:07:04.646 : en:01:07:04.646
    01:12:12.954 : en:01:12:12.954
    01:20:49.470 : en:01:20:49.470
    01:27:50.891 : en:01:27:50.891
    01:33:03.203 : en:01:33:03.203

    Скриншоты

    Скачать .torrent

    Скачать торрент-файл бесплатно и на максимальной скорости!

    Как скачивать? · Что такое торрент? · Рейтинг и ограничения

    !ВНИМАНИЕ!
    Сайт не распространяет и не хранит электронные версии произведений, а занимается лишь лишь предоставлением доступа к создаваемому пользователями каталогу ссылок на торрент-файлы, которые содержат только списки хеш-сумм, убедительная просьба с жалобами обращаться напрямую к пользователю. Файлы для обмена на трекере предоставлены пользователями сайта, и администрация не несёт ответственности за их содержание. Просьба не заливать файлы, защищенные авторскими правами, а также файлы нелегального содержания!


    _________________
    [Профиль] [ЛС]
    Показать сообщения:    
    Ответить на тему

    Текущее время: Сегодня, в 06:01

    Часовой пояс: GMT + 2



    Вы не можете начинать темы
    Вы не можете отвечать на сообщения
    Вы не можете редактировать свои сообщения
    Вы не можете удалять свои сообщения
    Вы не можете голосовать в опросах
    Вы не можете прикреплять файлы к сообщениям
    Вы не можете скачивать файлы