BitTorrentTracker PerecTracker.org
BitTorrentTracker PerecTracker.org
    
Регистрация  ·  Вход
 
 · 
Забыли пароль?

  • Трамбо / Trumbo (Джей Роуч / Jay Roach ) [2015, США, Драма, биография, BDRip, HD (720p)] MVO + Original + sub (eng)

    Ответить на тему
     
    Автор Сообщение

    Flirldrerve

    Создавать темы 15-Мар-2016 23:17

           

    [Цитировать]

    Трамбо / Trumbo
    «Are you now or have you ever been...»
    7.318 / 10 7.50 / 10
    -Год выпуска: 2015
    Страна: США
    Жанр: Драма, биография
    Продолжительность: 02:04:09
    Перевод: Многоголосый закадровый (iTunes)
    Оригинальная аудиодорожка: Есть
    Cубтитры: Английские
    Режиссёр: Джей Роуч
    Сценарий: Джон МакНамара, Брюс Кук
    Продюсер: Кевин Келли Браун, Моника Левинсон, Майкл Лондон
    Оператор: Джим Дено
    Композитор: Теодор Шапиро
    Художник: Марк Рикер, Лиза Маринаццио, Джесси Розенталь
    Монтаж: Алан Баумгартен
    В ролях: Брайан Крэнстон, Дайан Лэйн, Хелен Миррен, Луис С.К., Эль Фаннинг, Джон Гудман, Майкл Стулбарг, Алан Тьюдик, Адевале Акинойе-Агбаже, Дин О’Горман
    Сборы в США: $7 857 741
    Сборы в мире: + $377 920 = $8 235 661
    Сборы в России: $51 443
    Мировая премьера: 12 сентября 2015
    Премьера (РФ): 18 февраля 2016, «Парадиз»
    Описание: Далтон Трамбо, один из самых успешных голливудских сценаристов, автор «Римских каникул» и «Спартака», не подозревал, что черный список «Hollywood 10» реально существует, пока сам не попал туда и не был навсегда выкинут из жизни фабрики грез…-Качество исходника: Blu-Ray (BlueBird)
    Качество: BDRip
    Тип: HD (720p)
    Контейнер: M4V
    Видео: H.264, 1280x696, 1.85:1, 3 500 Kbps, 23.976 fps
    Аудио 1: Русский/Многоголосый закадровый (iTunes), AAC / 2.0 / 155 Kbps / 48.0 KHz
    Аудио 2: Английский/Оригинальная дорожка , AAC / 2.0 / 154 Kbps / 48.0 KHz
    Аудио 3: Русский/Многоголосый закадровый (iTunes), AC-3 / 5.1 / 384 Kbps / 48.0 KHz
    Аудио 4: Английский/Оригинальная дорожка , AC-3 / 5.1 / 640 Kbps / 48.0 KHz
    Субтитры: Английские полные
    -

    iTunes Meta Tags

    Sort Name: Trumbo
    XID: Apple:vendor_id:2015-799728
    contentID: 1050323837
    Copyright: © 2015 Bleecker Street Media LLC. All Rights Reserved.
    Screenwriters: Джон МакНамара, Брюс Кук
    Producers: Кевин Келли Браун, Моника Левинсон, Майкл Лондон
    Director: Джей Роуч
    Cast: Брайан Крэнстон, Дайан Лэйн, Хелен Миррен, Майкл Стулбарг, Дэвид Мальдонадо, Джон Гец, Лаура Флэннери, Дэвид Джеймс Эллиотт, Тоби Николс, Джозеф С. Мартино
    Studio: Bleecker Street
    Rating: 5
    Long Description: Далтон Трамбо, один из самых успешных голливудских сценаристов, автор "Римских каникул" и "Спартака", не подозревал, что черный список "Hollywood 10" реально существует, пока сам не попал туда и не был навсегда выкинут из жизни фабрики грез...
    Description: Далтон Трамбо, один из самых успешных голливудских сценаристов, автор "Римских каникул" и "Спартака", не подозревал, что черный список "Hollywood 10" реально существует, пока сам не попал туда и не был навсегда выкинут из жизни фабрики грез...
    Release Date: 2015-09-12T08:00:00Z
    Genre: Drama
    Artist: Jay Roach
    Name: Trumbo (2015)

    MediaInfo

    General
    Complete name : /Users/imac/HandBrake/Trumbo (720p HD).m4v
    Format : MPEG-4
    Codec ID : M4V  (M4V /M4A /mp42/isom)
    File size : 4.21 GiB
    Duration : 2h 4mn
    Overall bit rate mode : Variable
    Overall bit rate : 4 838 Kbps
    Movie name : Trumbo (2015)
    Performer : Jay Roach
    Director : Джей Роуч
    Actor : Брайан Крэнстон / Дайан Лэйн / Хелен Миррен / Майкл Стулбарг / Дэвид Мальдонадо / Джон Гец / Лаура Флэннери / Дэвид Джеймс Эллиотт / Тоби Николс / Джозеф С. Мартино
    Screenplay by : Джон МакНамара / Брюс Кук
    Producer : Кевин Келли Браун / Моника Левинсон / Майкл Лондон
    Production studio : Bleecker Street
    Genre : Drama
    ContentType : Short Film
    Description : Далтон Трамбо, один из самых успешных голливудских сценаристов, автор "Римских каникул" и "Спартака", не подозревал, что черный список "Hollywood 10" реально существует, пока сам не попал туда и не был навсегда выкинут из жизни фабрики грез...
    Recorded date : UTC 2015-09-12 08:00:00
    Encoded date : UTC 2016-03-15 08:03:43
    Tagged date : UTC 2016-03-15 08:06:12
    Copyright : © 2015 Bleecker Street Media LLC. All Rights Reserved.
    Cover : Yes
    Rating : None
    Title/Sort : Trumbo
    LongDescription : Далтон Трамбо, один из самых успешных голливудских сценаристов, автор "Римских каникул" и "Спартака", не подозревал, что черный список "Hollywood 10" реально существует, пока сам не попал туда и не был навсегда выкинут из жизни фабрики грез...
    HDVideo : Yes
    AppleStoreCatalogID : 1050323837
    Vendor : Apple:vendor_id:2015-799728
    ContentRating : mpaa|R|400|
    Video #1
    ID : 1
    Format : AVC
    Format/Info : Advanced Video Codec
    Format profile : High@L3.1
    Format settings, CABAC : No
    Format settings, ReFrames : 3 frames
    Codec ID : avc1
    Codec ID/Info : Advanced Video Coding
    Duration : 2h 4mn
    Source duration : 2h 4mn
    Bit rate : 3 500 Kbps
    Width : 1 280 pixels
    Height : 696 pixels
    Display aspect ratio : 1.85:1
    Frame rate mode : Variable
    Frame rate : 23.976 fps
    Minimum frame rate : 23.810 fps
    Maximum frame rate : 24.272 fps
    Color space : YUV
    Chroma subsampling : 4:2:0
    Bit depth : 8 bits
    Scan type : Progressive
    Bits/(Pixel*Frame) : 0.164
    Stream size : 3.04 GiB (72%)
    Source stream size : 3.04 GiB (72%)
    Title : Main Program
    Writing library : x264 core 142 r2479 dd79a61
    Encoding settings : cabac=0 / ref=3 / deblock=1:-3:-3 / analyse=0x3:0x113 / me=umh / subme=9 / psy=1 / psy_rd=1.00:0.15 / mixed_ref=1 / me_range=32 / chroma_me=1 / trellis=0 / 8x8dct=1 / cqm=0 / deadzone=21,11 / fast_pskip=0 / chroma_qp_offset=-2 / threads=36 / lookahead_threads=3 / sliced_threads=0 / nr=0 / decimate=0 / interlaced=0 / bluray_compat=0 / constrained_intra=0 / bframes=3 / b_pyramid=0 / b_adapt=2 / b_bias=0 / direct=1 / weightb=0 / open_gop=0 / weightp=0 / keyint=240 / keyint_min=24 / scenecut=40 / intra_refresh=0 / rc_lookahead=40 / rc=2pass / mbtree=1 / bitrate=3500 / ratetol=1.0 / qcomp=0.65 / qpmin=0 / qpmax=69 / qpstep=4 / cplxblur=20.0 / qblur=0.5 / vbv_maxrate=9500 / vbv_bufsize=9500 / nal_hrd=none / filler=0 / ip_ratio=1.40 / aq=1:1.10
    Language : English
    Encoded date : UTC 2016-03-15 08:03:43
    Tagged date : UTC 2016-03-15 08:03:49
    Color range : Limited
    Color primaries : BT.709
    Transfer characteristics : BT.709
    Matrix coefficients : BT.709
    Menus : 7,8
    Video #2
    ID : 8
    Format : JPEG
    Codec ID : jpeg
    Duration : 2h 4mn
    Duration_LastFrame : 2h 4mn
    Bit rate mode : Constant
    Bit rate : 9 874 bps
    Width : 640 pixels
    Height : 348 pixels
    Display aspect ratio : 1.85:1
    Frame rate : 0.048 fps
    Color space : YUV
    Chroma subsampling : 4:2:0
    Bit depth : 8 bits
    Compression mode : Lossy
    Bits/(Pixel*Frame) : 0.924
    Stream size : 8.80 MiB (0%)
    Title : Chapter Images
    Language : English
    Default : No
    Encoded date : UTC 2016-03-15 08:05:33
    Tagged date : UTC 2016-03-15 08:05:41
    Menu For : 1
    Audio #1
    ID : 2
    Format : AAC
    Format/Info : Advanced Audio Codec
    Format profile : LC
    Codec ID : 40
    Duration : 2h 4mn
    Bit rate mode : Variable
    Bit rate : 155 Kbps
    Maximum bit rate : 253 Kbps
    Channel(s) : 2 channels
    Channel positions : Front: L R
    Sampling rate : 48.0 KHz
    Frame rate : 46.875 fps (1024 spf)
    Compression mode : Lossy
    Stream size : 138 MiB (3%)
    Title : Russian Stereo
    Language : Russian
    Default : Yes
    Alternate group : 1
    Encoded date : UTC 2016-03-15 08:03:43
    Tagged date : UTC 2016-03-15 08:04:28
    Fallback From : 4
    Audio #2
    ID : 3
    Format : AAC
    Format/Info : Advanced Audio Codec
    Format profile : LC
    Codec ID : 40
    Duration : 2h 4mn
    Bit rate mode : Variable
    Bit rate : 154 Kbps
    Maximum bit rate : 274 Kbps
    Channel(s) : 2 channels
    Channel positions : Front: L R
    Sampling rate : 48.0 KHz
    Frame rate : 46.875 fps (1024 spf)
    Compression mode : Lossy
    Stream size : 137 MiB (3%)
    Title : English Stereo
    Language : English
    Default : No
    Alternate group : 1
    Encoded date : UTC 2016-03-15 08:03:43
    Tagged date : UTC 2016-03-15 08:04:28
    Fallback From : 5
    Audio #3
    ID : 4
    Format : AC-3
    Format/Info : Audio Coding 3
    Mode extension : CM (complete main)
    Format settings, Endianness : Big
    Codec ID : ac-3
    Duration : 2h 4mn
    Bit rate mode : Constant
    Bit rate : 384 Kbps
    Channel(s) : 6 channels
    Channel positions : Front: L C R, Side: L R, LFE
    Sampling rate : 48.0 KHz
    Frame rate : 31.250 fps (1536 spf)
    Bit depth : 16 bits
    Compression mode : Lossy
    Stream size : 342 MiB (8%)
    Title : Russian DD 5.1
    Language : Russian
    Default : Inherited From: 2
    Alternate group : 1
    Encoded date : UTC 2016-03-15 08:03:43
    Tagged date : UTC 2016-03-15 08:04:28
    Fallback To : 2
    Audio #4
    ID : 5
    Format : AC-3
    Format/Info : Audio Coding 3
    Mode extension : CM (complete main)
    Format settings, Endianness : Big
    Codec ID : ac-3
    Duration : 2h 4mn
    Bit rate mode : Constant
    Bit rate : 640 Kbps
    Channel(s) : 6 channels
    Channel positions : Front: L C R, Side: L R, LFE
    Sampling rate : 48.0 KHz
    Frame rate : 31.250 fps (1536 spf)
    Bit depth : 16 bits
    Compression mode : Lossy
    Stream size : 571 MiB (13%)
    Title : English DD 5.1
    Language : English
    Default : No
    Alternate group : 1
    Encoded date : UTC 2016-03-15 08:03:43
    Tagged date : UTC 2016-03-15 08:04:28
    Fallback To : 3
    Text
    ID : 6
    Format : Timed Text
    Muxing mode : sbtl
    Codec ID : tx3g
    Duration : 2h 1mn
    Bit rate mode : Variable
    Bit rate : 100 bps
    Stream size : 89.1 KiB (0%)
    Title : English full
    Language : English
    Default : Yes
    Forced : No
    Alternate group : 2
    Encoded date : UTC 2016-03-15 08:03:43
    Tagged date : UTC 2016-03-15 08:04:27
    Menu
    ID : 2
    Codec ID : text
    Duration : 2h 4mn
    Language : English
    Encoded date : UTC 2016-03-07 22:09:22
    Tagged date : UTC 2016-03-07 22:09:22
    Menu For : 1
    00:00:00.000 : Chapter 1
    00:07:30.242 : Chapter 2
    00:14:59.441 : Chapter 3
    00:20:57.215 : Chapter 4
    00:26:34.552 : Chapter 5
    00:33:53.073 : Chapter 6
    00:37:17.486 : Chapter 7
    00:44:06.728 : Chapter 8
    00:49:25.213 : Chapter 9
    00:55:12.268 : Chapter 10
    01:02:08.976 : Chapter 11
    01:08:06.082 : Chapter 12
    01:16:20.493 : Chapter 13
    01:23:31.507 : Chapter 14
    01:29:42.628 : Chapter 15
    01:34:53.480 : Chapter 16
    01:39:49.484 : Chapter 17
    01:47:33.948 : Chapter 18
    01:52:36.709 : Chapter 19
    01:58:56.797 : Chapter 20
    Bit rate mode : VBR

    x264 лог

    x264 [info]: frame I:1697  Avg QP:14.94  size:124116
    x264 [info]: frame P:65382 Avg QP:16.73  size: 33785
    x264 [info]: frame B:112249 Avg QP:18.76  size:  7498
    x264 [info]: consecutive B-frames:  4.6% 24.2% 35.4% 35.9%
    x264 [info]: mb I  I16..4:  9.8% 54.9% 35.3%
    x264 [info]: mb P  I16..4:  1.1%  3.9%  1.7%  P16..4: 47.9% 24.6% 10.3%  0.0%  0.0%    skip:10.5%
    x264 [info]: mb B  I16..4:  0.1%  0.5%  0.2%  B16..8: 42.7%  8.9%  1.2%  direct: 2.8%  skip:43.8%  L0:39.8% L1:52.0% BI: 8.2%
    x264 [info]: 8x8 transform intra:58.6% inter:41.8%
    x264 [info]: coded y,uvDC,uvAC intra: 83.5% 77.6% 58.7% inter: 19.2% 20.3% 13.6%
    x264 [info]: i16 v,h,dc,p: 49% 13%  6% 32%
    x264 [info]: i8 v,h,dc,ddl,ddr,vr,hd,vl,hu: 14%  7%  5% 10% 14% 14% 13% 12% 10%
    x264 [info]: i4 v,h,dc,ddl,ddr,vr,hd,vl,hu: 14%  9%  3% 11% 16% 15% 13% 11%  8%
    x264 [info]: i8c dc,h,v,p: 54% 15% 20% 10%
    x264 [info]: ref P L0: 70.5% 17.0% 12.6%
    x264 [info]: ref B L0: 78.0% 22.0%
    x264 [info]: kb/s:3488.22

    Скриншоты

    -

    Релиз подготовлен для просмотра на Apple TV, iPad, iPhone, iPod Touch.
    Для просмотра данного релиза на компьютере с ОС Windows рекомендуется использовать VLC media player
    Скачать .torrent

    Скачать торрент-файл бесплатно и на максимальной скорости!

    Как скачивать? · Что такое торрент? · Рейтинг и ограничения

    !ВНИМАНИЕ!
    Сайт не распространяет и не хранит электронные версии произведений, а занимается лишь лишь предоставлением доступа к создаваемому пользователями каталогу ссылок на торрент-файлы, которые содержат только списки хеш-сумм, убедительная просьба с жалобами обращаться напрямую к пользователю. Файлы для обмена на трекере предоставлены пользователями сайта, и администрация не несёт ответственности за их содержание. Просьба не заливать файлы, защищенные авторскими правами, а также файлы нелегального содержания!


    _________________
    [Профиль] [ЛС]
    Показать сообщения:    
    Ответить на тему

    Текущее время: Сегодня, в 08:05

    Часовой пояс: GMT + 2



    Вы не можете начинать темы
    Вы не можете отвечать на сообщения
    Вы не можете редактировать свои сообщения
    Вы не можете удалять свои сообщения
    Вы не можете голосовать в опросах
    Вы не можете прикреплять файлы к сообщениям
    Вы не можете скачивать файлы