BitTorrentTracker PerecTracker.org
BitTorrentTracker PerecTracker.org
    
Регистрация  ·  Вход
 
 · 
Забыли пароль?

  • Принц / Prins (Сэм де Йонг / Sam de Jong) [2015, Нидерланды, Драма, WEB-Rip-AVC] VO (Blogomor)

    Ответить на тему
     
    Автор Сообщение

    rechyn

    Создавать темы 15-Мар-2016 19:05

           

    [Цитировать]

    Принц / Prins
    Страна: Нидерланды
    Жанр: Драма
    Год выпуска: 2015
    Продолжительность: 01:14:26
    Перевод: Одноголосый закадровый, Blogomor
    Cубтитры: нет
    Оригинальная аудиодорожка: нет
    Режиссер: Сэм де Йонг / Sam de Jong
    В ролях: Оссама Адди, Эльзи де Броу, Аюб Еласри, Оливия Лонсдэйл, Ашраф Мецьяни, Йорик Шолтен, Сигрид Тен Нейпел
    Описание: Проблемный подросток пытается завоевать любовь своей жизни, став самым опасным парнем на районе.
    Сэмпл: http://sendfile.su/1214188
    Качество видео: WEB-Rip (источник неизвестен)
    Формат видео: MP4
    Видео: AVC, 626x480 (1,902:1), 25 fps, 1238 Кбит/сек
    Аудио: AAC 40, 44,1 kHz, 126 Кбит/сек, 2/0 (L,R) ch

    MediaInfo

    Общее
    Полное имя : D:\Prins (2015).mp4
    Формат : MPEG-4
    Идентификатор кодека : M4V (M4V /mp42/isom)
    Размер файла : 728 Мбайт
    Продолжительность : 1 ч. 14 м.
    Режим общего битрейта : Переменный
    Общий поток : 1367 Кбит/сек
    Дата кодирования : UTC 2016-03-14 09:54:07
    Дата пометки : UTC 2016-03-14 09:54:15
    ©TIM : 00:00:00:00
    ©TSC : 25
    ©TSZ : 1
    Видео
    Идентификатор : 1
    Формат : AVC
    Формат/Информация : Advanced Video Codec
    Профиль формата : Main@L3.1
    Параметр CABAC формата : Нет
    Параметр ReFrames формата : 2 кадра
    Идентификатор кодека : avc1
    Идентификатор кодека/Информация : Advanced Video Coding
    Продолжительность : 1 ч. 14 м.
    Битрейт : 1238 Кбит/сек
    Ширина : 626 пикселей
    Высота : 480 пикселей
    Соотношение сторон : 1,902
    Режим частоты кадров : Постоянный
    Частота кадров : 25,000 кадров/сек
    Стандарт вещания : PAL
    Цветовое пространство : YUV
    Субдискретизация насыщенности : 4:2:0
    Битовая глубина : 8 бит
    Тип развёртки : Прогрессивная
    Бит/(Пиксели*Кадры) : 0.165
    Размер потока : 659 Мбайт (91%)
    Язык : English
    Дата кодирования : UTC 2016-03-14 09:54:07
    Дата пометки : UTC 2016-03-14 09:54:07
    Цветовой диапазон : Limited
    Основные цвета : BT.601 NTSC
    Характеристики трансфера : BT.601
    Коэффициенты матрицы : BT.601
    Аудио
    Идентификатор : 2
    Формат : AAC
    Формат/Информация : Advanced Audio Codec
    Профиль формата : LC
    Идентификатор кодека : 40
    Продолжительность : 1 ч. 14 м.
    Продолжительность оригинала : 1 ч. 14 м.
    Вид битрейта : Переменный
    Битрейт : 126 Кбит/сек
    Максимальный битрейт : 211 Кбит/сек
    Каналы : 2 канала
    Расположение каналов : Front: L R
    Частота : 44,1 КГц
    Частота кадров : 43,066 кадра/сек (1024 spf)
    Метод сжатия : С потерями
    Размер потока : 66,9 Мбайт (9%)
    Размер потока оригинала : 66,9 Мбайт (9%)
    Язык : English
    Дата кодирования : UTC 2016-03-14 09:54:07
    Дата пометки : UTC 2016-03-14 09:54:07

    Скриншот c названием фильма

    Скриншоты


    Скачать .torrent

    Скачать торрент-файл бесплатно и на максимальной скорости!

    Как скачивать? · Что такое торрент? · Рейтинг и ограничения

    !ВНИМАНИЕ!
    Сайт не распространяет и не хранит электронные версии произведений, а занимается лишь лишь предоставлением доступа к создаваемому пользователями каталогу ссылок на торрент-файлы, которые содержат только списки хеш-сумм, убедительная просьба с жалобами обращаться напрямую к пользователю. Файлы для обмена на трекере предоставлены пользователями сайта, и администрация не несёт ответственности за их содержание. Просьба не заливать файлы, защищенные авторскими правами, а также файлы нелегального содержания!


    _________________
    [Профиль] [ЛС]
    Показать сообщения:    
    Ответить на тему

    Текущее время: Сегодня, в 00:32

    Часовой пояс: GMT + 2



    Вы не можете начинать темы
    Вы не можете отвечать на сообщения
    Вы не можете редактировать свои сообщения
    Вы не можете удалять свои сообщения
    Вы не можете голосовать в опросах
    Вы не можете прикреплять файлы к сообщениям
    Вы не можете скачивать файлы