BitTorrentTracker PerecTracker.org
BitTorrentTracker PerecTracker.org
    
Регистрация  ·  Вход
 
 · 
Забыли пароль?

  • Истории ужасов / Nooseowoon Iyagi (Чжи-Ен Хонг / Zhi-Yong Hong, Чжеонг Беом-сик / Chzheong Beom-sik) [2012, Корея Южная, Ужасы, DVDRip] DVO

    Ответить на тему
     
    Автор Сообщение

    Columb

    Создавать темы 11-Янв-2014 11:52

           

    [Цитировать]

    Истории ужасов / Nooseowoon Iyagi
    Страна: Корея Южная
    Жанр: Ужасы
    Год выпуска: 2012
    Продолжительность: 01:48:51
    Перевод: Любительский (двухголосый закадровый) [DeadSno & den904]
    Cубтитры: нет
    Режиссер: Чжи-Ен Хонг / Zhi-Yong Hong, Чжеонг Беом-сик / Chzheong Beom-sik
    В ролях: Ким Чжи Вон, Тхэ-у Ким, Нам Бо Ра, Ра Ми Ран, Ю Ен Сок
    Описание: Ученица средней школы, Чжи Вон, похищена серийным убийцей. Убийца может пойти спать, только когда он слушает страшные истории. Надеясь спастись, Чжи Вон начинает рассказывать ему страшные истории, которые она знает.
    Доп. информация:
    Сэмпл: http://multi-up.com/939064
    Качество видео: DVDRip
    Формат видео: AVI
    Видео: 720x304,25 fps,XviD build 50,767 kbps avg,0.14 bit/pixel
    Аудио: 48 kHz,MPEG Layer 3,2 ch,128.00 kbps avg

    MediaInfo

    Общее
    Полное имя : C:\Users\PC\Downloads\Nooseowoon Iyagi.avi
    Формат : AVI
    Формат/Информация : Audio Video Interleave
    Размер файла : 705 Мбайт
    Продолжительность : 1 ч. 48 м.
    Общий поток : 906 Кбит/сек
    Программа кодирования : VirtualDubMod 1.5.10.3 | (build 2550/release)
    Библиотека кодирования : VirtualDubMod build 2550/release
    Видео
    Идентификатор : 0
    Формат : MPEG-4 Visual
    Профиль формата : Advanced Simple@L5
    Параметр BVOP формата : 2
    Параметр QPel формата : Нет
    Параметр GMC формата : Без точки перехода
    Параметр матрицы формата : Default (H.263)
    Идентификатор кодека : XVID
    Идентификатор кодека/Подсказка : XviD
    Продолжительность : 1 ч. 48 м.
    Битрейт : 768 Кбит/сек
    Ширина : 720 пикселей
    Высота : 304 пикселя
    Соотношение сторон : 2,35:1
    Частота кадров : 25,000 кадров/сек
    Цветовое пространство : YUV
    Субдискретизация насыщенности : 4:2:0
    Битовая глубина : 8 бит
    Тип развёртки : Прогрессивная
    Бит/(Пиксели*Кадры) : 0.140
    Размер потока : 598 Мбайт (85%)
    Библиотека кодирования : XviD 1.2.1 (UTC 2008-12-04)
    Аудио
    Идентификатор : 1
    Формат : MPEG Audio
    Версия формата : Version 1
    Профиль формата : Layer 3
    Идентификатор кодека : 55
    Идентификатор кодека/Подсказка : MP3
    Продолжительность : 1 ч. 48 м.
    Вид битрейта : Постоянный
    Битрейт : 128 Кбит/сек
    Каналы : 2 канала
    Частота : 48,0 КГц
    Размер потока : 99,7 Мбайт (14%)
    Выравнивание : Соединение по промежуткам
    Продолжительность промежутка : 40 мс. (1,00 видеокадр)
    Время предзагрузки промежутка : 504 мс.
    Библиотека кодирования : LAME3.99r
    Настройки программы : -m s -V 4 -q 2 -lowpass 17 -b 128

    Скриншот c названием фильма

    Скриншоты

    Скачать .torrent

    Скачать торрент-файл бесплатно и на максимальной скорости!

    Как скачивать? · Что такое торрент? · Рейтинг и ограничения

    !ВНИМАНИЕ!
    Сайт не распространяет и не хранит электронные версии произведений, а занимается лишь лишь предоставлением доступа к создаваемому пользователями каталогу ссылок на торрент-файлы, которые содержат только списки хеш-сумм, убедительная просьба с жалобами обращаться напрямую к пользователю. Файлы для обмена на трекере предоставлены пользователями сайта, и администрация не несёт ответственности за их содержание. Просьба не заливать файлы, защищенные авторскими правами, а также файлы нелегального содержания!

    [Профиль] [ЛС]
    Показать сообщения:    
    Ответить на тему

    Текущее время: Сегодня, в 10:56

    Часовой пояс: GMT + 2



    Вы не можете начинать темы
    Вы не можете отвечать на сообщения
    Вы не можете редактировать свои сообщения
    Вы не можете удалять свои сообщения
    Вы не можете голосовать в опросах
    Вы не можете прикреплять файлы к сообщениям
    Вы не можете скачивать файлы