BitTorrentTracker PerecTracker.org
BitTorrentTracker PerecTracker.org
    
Регистрация  ·  Вход
 
 · 
Забыли пароль?

  • 10% мой ребёнок / 10% My Child / 10% yalda sheli (Ури Бар-Он / Uri Bar-On) [2014, Израиль, драма, комедия, семейный, HDTVRip] Sub Rus, Heb + Original Heb

    Ответить на тему
     
    Автор Сообщение

    rechyn

    Создавать темы 15-Мар-2016 14:53

           

    [Цитировать]

    10% мой ребёнок / 10% My Child / 10% yalda sheli
    Страна: Израиль
    Жанр: драма, комедия, семейный
    Год выпуска: 2014
    Продолжительность: 01:22:25
    Перевод: Субтитры
    Cубтитры: русские
    Оригинальная аудиодорожка: иврит
    Режиссер: Ури Бар-Он / Uri Bar-On
    В ролях: Уди Перси, Яли Фридман, Гур Бентвич, Веред Фельдман
    Описание: 27-летний Нико — недоучившийся режиссёр, ведущий богемное существование в Тель-Авиве. Поворот в его жизни начался в то утро, когда в спальню его очередной подружки вторглась её семилетняя дочь Френи, о существовании которой любовник до того момента не подозревал. Нико, привыкший поступать как ему заблагорассудится, не признающий никаких серьёзных обязательств, испугался и попросту сбежал.
    Но если он желает сохранить подружку, коей он серьёзно увлечён, ему необходимо найти путь к сердцу Френи. Поэтому мужчине приходится решать, как вести себя в отношении обделённого родительским вниманием ребёнка с его непредсказуемым характером, с его надеждой на любовь и поддержку взрослого.
    Доп. информация: Номинация Израильской киноакадемии на лучший фильм года (2015).
    ,
    Сэмпл: http://www.mediafire.com/download/jnbdpiv3yfrs3dp/Sample_-_10.Percent.My.Child.avi
    Качество видео: HDTVRip
    Формат видео: AVI
    Видео: XviD 624х352 16:9 25 кадров/сек 1049 Кбит/сек
    Аудио: MP3 48 КГц 2 канала 128 Кбит/сек
    Формат субтитров: русские (softsub, ASS), иврит (hardsub)

    Образец субтитров

    Dialogue: 0,0:04:05.08,0:04:07.39,Default,,0,0,0,,- Куда ты исчез?\N- Куда я исчез?
    Dialogue: 0,0:04:07.40,0:04:09.11,Default,,0,0,0,,Не знаю, я проснулся и...
    Dialogue: 0,0:04:09.12,0:04:10.83,Default,,0,0,0,,увидел вдруг, что твоя дочь смотрит на меня,
    Dialogue: 0,0:04:10.84,0:04:14.03,Default,,0,0,0,,- спящего в твоей постели. - Что?\N- Почему ты не заперла дверь?
    Dialogue: 0,0:04:14.04,0:04:17.59,Default,,0,0,0,,Чёрт, я не верю.
    Dialogue: 0,0:04:17.60,0:04:22.23,Default,,0,0,0,,- Нико... - Она расскажет ему?\N- Ясно, что расскажет, он же её отец.
    Dialogue: 0,0:04:22.24,0:04:24.51,Default,,0,0,0,,Ноа, я думаю, пришло время, рассказать ему.
    Dialogue: 0,0:04:24.52,0:04:26.07,Default,,0,0,0,,- Если ты не расскажешь...\N- Что я наделала?
    Dialogue: 0,0:04:26.08,0:04:29.64,Default,,0,0,0,,- Я такая чокнутая мать.\N- Эй, эй, ты, вообще не чокнутая. Хватит.
    Dialogue: 0,0:04:29.74,0:04:32.11,Default,,0,0,0,,Случилось и всё. Ничего не поделаешь.
    Dialogue: 0,0:04:32.12,0:04:35.91,Default,,0,0,0,,Ноа, как только он приземлится,\Nпоймаешь его и расскажешь всё.
    Dialogue: 0,0:04:35.92,0:04:37.79,Default,,0,0,0,,Хватит, мы уже закончили с этой игрой.
    Dialogue: 0,0:04:37.80,0:04:39.51,Default,,0,0,0,,Для тебя, может быть, это - игра. Ты не понимаешь?
    Dialogue: 0,0:04:39.52,0:04:41.27,Default,,0,0,0,,Он потребует теперь, чтобы я выметалась\Nиз квартиры. Где я буду жить с ней?
    Dialogue: 0,0:04:41.27,0:04:43.15,Default,,0,0,0,,Не знаю. Хочешь переехать жить сюда?
    Dialogue: 0,0:04:43.16,0:04:45.75,Default,,0,0,0,,Переезжай, я организую здесь.\NМы наведём порядок.
    Dialogue: 0,0:04:45.76,0:04:48.51,Default,,0,0,0,,Чего вдруг? Как я буду жить там?\NМне с ней нужна отдельная квартира.
    Dialogue: 0,0:04:48.52,0:04:50.47,Default,,0,0,0,,Тогда, переезжай, куда хочешь.
    Dialogue: 0,0:04:50.48,0:04:52.87,Default,,0,0,0,,Я помогу тебе с ней, обещаю. Всё будет в порядке.
    Dialogue: 0,0:04:52.88,0:04:56.43,Default,,0,0,0,,Ладно, ты не понимаешь вообще, что говоришь.\NЧёрт, она идёт.

    MediaInfo

    Общее
    Полное имя : 10 Percent My Child.avi
    Формат : AVI
    Формат/Информация : Audio Video Interleave
    Размер файла : 701 Мбайт
    Продолжительность : 1 ч. 22 м.
    Режим общего битрейта : Переменный
    Общий поток : 1189 Кбит/сек
    Программа кодирования : VirtualDubMod 1.5.10.2 (build 2540/release)
    Библиотека кодирования : VirtualDub build 35491/release
    Видео
    Идентификатор : 0
    Формат : MPEG-4 Visual
    Профиль формата : Advanced Simple@L5
    Параметр BVOP формата : 2
    Параметр QPel формата : Нет
    Параметр GMC формата : Без точки перехода
    Параметр матрицы формата : Default (H.263)
    Идентификатор кодека : XVID
    Идентификатор кодека/Подсказка : XviD
    Продолжительность : 1 ч. 22 м.
    Битрейт : 1049 Кбит/сек
    Ширина : 624 пикселя
    Высота : 352 пикселя
    Соотношение сторон : 16:9
    Частота кадров : 25,000 кадров/сек
    Цветовое пространство : YUV
    Субдискретизация насыщенности : 4:2:0
    Битовая глубина : 8 бит
    Тип развёртки : Чересстрочная
    Порядок развёртки : Нижнее поле первое
    Метод сжатия : С потерями
    Бит/(Пиксели*Кадры) : 0.191
    Размер потока : 618 Мбайт (88%)
    Библиотека кодирования : XviD 64
    Аудио
    Идентификатор : 1
    Формат : MPEG Audio
    Версия формата : Version 1
    Профиль формата : Layer 3
    Режим : Joint stereo
    Расширение режима : MS Stereo
    Идентификатор кодека : 55
    Идентификатор кодека/Подсказка : MP3
    Продолжительность : 1 ч. 22 м.
    Вид битрейта : Переменный
    Битрейт : 128 Кбит/сек
    Каналы : 2 канала
    Частота : 48,0 КГц
    Метод сжатия : С потерями
    Размер потока : 75,1 Мбайт (11%)
    Выравнивание : Соединение по промежуткам
    Продолжительность промежутка : 24 мс. (0,60 видеокадр)
    Время предзагрузки промежутка : 512 мс.

    Скриншот c названием фильма

    Скриншоты




    Скачать .torrent

    Скачать торрент-файл бесплатно и на максимальной скорости!

    Как скачивать? · Что такое торрент? · Рейтинг и ограничения

    !ВНИМАНИЕ!
    Сайт не распространяет и не хранит электронные версии произведений, а занимается лишь лишь предоставлением доступа к создаваемому пользователями каталогу ссылок на торрент-файлы, которые содержат только списки хеш-сумм, убедительная просьба с жалобами обращаться напрямую к пользователю. Файлы для обмена на трекере предоставлены пользователями сайта, и администрация не несёт ответственности за их содержание. Просьба не заливать файлы, защищенные авторскими правами, а также файлы нелегального содержания!


    _________________
    [Профиль] [ЛС]
    Показать сообщения:    
    Ответить на тему

    Текущее время: Сегодня, в 23:15

    Часовой пояс: GMT + 2



    Вы не можете начинать темы
    Вы не можете отвечать на сообщения
    Вы не можете редактировать свои сообщения
    Вы не можете удалять свои сообщения
    Вы не можете голосовать в опросах
    Вы не можете прикреплять файлы к сообщениям
    Вы не можете скачивать файлы