BitTorrentTracker PerecTracker.org
BitTorrentTracker PerecTracker.org
    
Регистрация  ·  Вход
 
 · 
Забыли пароль?

  • Страна ОЗ (Василий Сигарев) [2015, Россия, комедия, DVDRip-AVC] [кинотеатральная / режиссёрская]

    Ответить на тему
     
    Автор Сообщение

    rechyn

    Создавать темы 15-Мар-2016 05:29

           

    [Цитировать]

    Страна ОЗ-Страна: Россия
    Жанр: комедия
    Год выпуска: 2015
    Продолжительность: 01:35:48
    Перевод: Не требуется
    Оригинальная аудиодорожка: русский (2 варианта: кинотеатральная / режиссёрская (без цензуры))
    Режиссер: Василий Сигарев
    В ролях: Яна Троянова, Гоша Куценко, Андрей Ильенков, Александр Баширов, Евгений Цыганов, Владимир Симонов, Инна Чурикова, Светлана Камынина, Юлия Снигирь, Алиса Хазанова
    Описание: Новый год в России — стихия неуправляемая и беспощадная. Именно в это волшебное время непостижимый колорит русской души проявляет себя во всей красе. Пока жители Екатеринбурга готовятся к главному национальному празднику и шинкуют оливье, Ленка Шабадинова спешит до боя курантов принять смену в киоске на улице Торфорезов. Но она даже не подозревает, что новогодняя ночь приготовила для нее свой безумный сценарий.

    Качество: DVDRip-AVC (исходник - [url=viewtopic.php?t=5189236]DVD9[/url])
    Формат: MKV
    Видео: x264, 720x566@1024x566 (16:9), 25.000 кадр/сек, 2365 Кбит/сек, 0.232 bit/pixel
    Аудио 1: 48 kHz, AC3 Dolby Digital, 3/2 (L,C,R,l,r) + LFE ch, ~448 kbps avg (с цензурой)
    Аудио 2: 48 kHz, AC3 Dolby Digital, 3/2 (L,C,R,l,r) + LFE ch, ~448 kbps avg (режиссёрская / без цензуры)

    MediaInfo | x264 log
    Format : Matroska
    Format version : Version 4 / Version 2
    File size : 2.18 GiB
    Duration : 1h 35mn
    Overall bit rate : 3 261 Kbps
    Movie name : Страна ОЗ (2015) :: AFM ::
    Encoded date : UTC 2016-03-14 23:54:21
    Writing application : mkvmerge v8.3.0 ('Over the Horizon') 32bit
    Writing library : libebml v1.3.1 + libmatroska v1.4.2
    DURATION : 01:35:48.480000000
    Video
    ID : 1
    Format : AVC
    Format/Info : Advanced Video Codec
    Format profile : High@L4.1
    Format settings, CABAC : Yes
    Format settings, ReFrames : 10 frames
    Codec ID : V_MPEG4/ISO/AVC
    Duration : 1h 35mn
    Bit rate : 2 365 Kbps
    Width : 720 pixels
    Height : 566 pixels
    Display aspect ratio : 16:9
    Frame rate mode : Constant
    Frame rate : 25.000 fps
    Color space : YUV
    Chroma subsampling : 4:2:0
    Bit depth : 8 bits
    Scan type : Progressive
    Bits/(Pixel*Frame) : 0.232
    Stream size : 1.54 GiB (71%)
    Title : DVDRip by AFM [RuTracker.org]
    Writing library : x264 core 148 r2665+53 6629127 t_mod_Custom [8-bit@all X86_64]
    Encoding settings : cabac=1 / ref=10 / deblock=1:-2:-1 / analyse=0x3:0x113 / me=umh / subme=10 / psy=1 / fade_compensate=0.00 / psy_rd=1.00:0.00 / mixed_ref=1 / me_range=32 / chroma_me=1 / trellis=2 / 8x8dct=1 / cqm=0 / deadzone=21,11 / fast_pskip=0 / chroma_qp_offset=-2 / threads=6 / lookahead_threads=1 / sliced_threads=0 / nr=0 / decimate=0 / interlaced=0 / bluray_compat=0 / constrained_intra=0 / fgo=0 / bframes=13 / b_pyramid=2 / b_adapt=2 / b_bias=0 / direct=1 / weightb=1 / open_gop=0 / weightp=2 / keyint=250 / keyint_min=25 / scenecut=40 / intra_refresh=0 / rc_lookahead=40 / rc=2pass / mbtree=0 / bitrate=2365 / ratetol=1.0 / qcomp=0.65 / qpmin=0:0:0 / qpmax=69:69:69 / qpstep=4 / cplxblur=20.0 / qblur=0.5 / vbv_maxrate=50000 / vbv_bufsize=62500 / nal_hrd=none / filler=0 / ip_ratio=1.35 / pb_ratio=1.30 / aq=3:1.00 / aq-sensitivity=10.00 / aq-factor=1.00:1.00:1.00 / aq2=0 / aq3=0
    Language : English
    Default : Yes
    Forced : No
    Audio #1
    ID : 2
    Format : AC-3
    Format/Info : Audio Coding 3
    Mode extension : CM (complete main)
    Format settings, Endianness : Big
    Codec ID : A_AC3
    Duration : 1h 35mn
    Bit rate mode : Constant
    Bit rate : 448 Kbps
    Channel(s) : 6 channels
    Channel positions : Front: L C R, Side: L R, LFE
    Sampling rate : 48.0 KHz
    Compression mode : Lossy
    Stream size : 307 MiB (14%)
    Title : с цензурой
    Language : Russian
    Default : Yes
    Forced : No
    Audio #2
    ID : 3
    Format : AC-3
    Format/Info : Audio Coding 3
    Mode extension : CM (complete main)
    Format settings, Endianness : Big
    Codec ID : A_AC3
    Duration : 1h 35mn
    Bit rate mode : Constant
    Bit rate : 448 Kbps
    Channel(s) : 6 channels
    Channel positions : Front: L C R, Side: L R, LFE
    Sampling rate : 48.0 KHz
    Compression mode : Lossy
    Stream size : 307 MiB (14%)
    Title : режиссёрская (без цензуры)
    Language : Russian
    Default : No
    Forced : No

    х264

    x264 [info]: frame I:788 Avg QP:16.45 size: 66902
    x264 [info]: frame P:31152 Avg QP:19.08 size: 25531
    x264 [info]: frame B:111772 Avg QP:20.47 size: 7602
    x264 [info]: consecutive B-frames: 2.0% 2.9% 12.2% 10.4% 9.5% 56.0% 4.0% 1.3% 0.5% 0.2% 0.1% 0.4% 0.1% 0.4%
    x264 [info]: mb I I16..4: 5.4% 76.7% 17.9%
    x264 [info]: mb P I16..4: 0.9% 14.1% 1.2% P16..4: 36.2% 25.8% 14.5% 0.0% 0.0% skip: 7.3%
    x264 [info]: mb B I16..4: 0.1% 1.2% 0.1% B16..8: 34.1% 11.0% 3.3% direct:10.3% skip:39.9% L0:36.2% L1:35.7% BI:28.2%
    x264 [info]: 8x8 transform intra:85.6% inter:64.2%
    x264 [info]: coded y,uvDC,uvAC intra: 91.0% 91.7% 76.3% inter: 31.0% 31.7% 13.6%
    x264 [info]: i16 v,h,dc,p: 49% 9% 5% 38%
    x264 [info]: i8 v,h,dc,ddl,ddr,vr,hd,vl,hu: 19% 7% 10% 8% 11% 13% 9% 13% 10%
    x264 [info]: i4 v,h,dc,ddl,ddr,vr,hd,vl,hu: 24% 6% 4% 8% 12% 15% 10% 12% 8%
    x264 [info]: i8c dc,h,v,p: 41% 18% 24% 17%
    x264 [info]: Weighted P-Frames: Y:98.4% UV:4.6%
    x264 [info]: ref P L0: 44.6% 13.9% 16.9% 5.6% 5.2% 3.4% 3.7% 2.1% 2.2% 1.9% 0.5% 0.0%
    x264 [info]: ref B L0: 78.6% 11.2% 3.7% 2.0% 1.4% 1.3% 1.1% 0.5% 0.3%
    x264 [info]: ref B L1: 94.9% 5.1%
    x264 [info]: kb/s:2362.74

    Скриншоты

    с названием

    Скачать .torrent

    Скачать торрент-файл бесплатно и на максимальной скорости!

    Как скачивать? · Что такое торрент? · Рейтинг и ограничения

    !ВНИМАНИЕ!
    Сайт не распространяет и не хранит электронные версии произведений, а занимается лишь лишь предоставлением доступа к создаваемому пользователями каталогу ссылок на торрент-файлы, которые содержат только списки хеш-сумм, убедительная просьба с жалобами обращаться напрямую к пользователю. Файлы для обмена на трекере предоставлены пользователями сайта, и администрация не несёт ответственности за их содержание. Просьба не заливать файлы, защищенные авторскими правами, а также файлы нелегального содержания!


    _________________
    [Профиль] [ЛС]
    Показать сообщения:    
    Ответить на тему

    Текущее время: Сегодня, в 02:41

    Часовой пояс: GMT + 2



    Вы не можете начинать темы
    Вы не можете отвечать на сообщения
    Вы не можете редактировать свои сообщения
    Вы не можете удалять свои сообщения
    Вы не можете голосовать в опросах
    Вы не можете прикреплять файлы к сообщениям
    Вы не можете скачивать файлы