BitTorrentTracker PerecTracker.org
BitTorrentTracker PerecTracker.org
    
Регистрация  ·  Вход
 
 · 
Забыли пароль?

  • Мотель / The Bag Man (Дэвид Гровик / David Grovic) [2014, США, Багамы, триллер, криминал, BDRemux 1080p] DVO (R5) + AVO (Карповский) + DVO (den904 & DeadSno) + Original (Eng) + Sub (Rus, Eng)

    Ответить на тему
     
    Автор Сообщение

    Flirldrerve

    Создавать темы 15-Мар-2016 01:22

           

    [Цитировать]

    Мотель / The Bag Man

    -
    -Страна: США, Багамы
    Студия: Tin Res Entertainment, Red Granite International, Cinedigm
    Жанр: триллер, криминал
    Год выпуска: 2014
    Продолжительность: 01:48:39--Перевод 1: Профессиональный (двухголосый, закадровый) R5
    Перевод 2: Авторский (одноголосый закадровый) А. Карповский
    Перевод 3: Любительский (двухголосый закадровый) den904 & DeadSno
    Cубтитры: русские (Janetta), английские SDH
    Оригинальная аудиодорожка: английский--Режиссер: Дэвид Гровик / David Grovic
    В ролях: Джон Кьюсак, Ребекка Да Коста, Роберт Де Ниро, Криспин Гловер, Доминик Пёрселл, Мартин Клебба, Стикки Фингаз, Дэвид Шамбрис, Чезз Менендес, Йен Маклафлин--Описание: Наемный убийца Джек Стаффорд получает несложное задание: приехать в заштатный мотель в 300 милях от Питтсбурга, получить сумку с таинственным содержимым и оставаться в номере, пока за грузом не приедут. Условие одно: ни при каких обстоятельствах не заглядывать внутрь сумки. Но поручение оказывается простым лишь на первый взгляд. Вскоре киллер понимает, что за доверенным ему предметом охотятся коррумпированные агенты ФБР, продажные полицейские, провинциальные гангстеры и кровожадный карлик-цыган из Сербии. И каждый хочет всадить в Джека пулю. Число жертв растет на глазах, и дожить до рассвета смогут далеко не все постояльцы мотеля.-- | | Сэмпл | --Тип релиза: BDRemux 1080p [The Bag Man 2014 1080p Blu-ray AVC DTS-HD MA 5.1-TTG]
    Контейнер: MKV
    Видео: MPEG-4 AVC / 31991 kbps / 1920x1080 / 23,976 fps / 16:9 / High Profile 4.1
    Аудио 1: Russian AC3 / 5.1 / 48 kHz / 448 kbps / 16 bits |DVO, R5|
    Аудио 2: Russian AC3 / 5.1 / 48 kHz / 448 kbps / 16 bits |А. Карповский|
    Аудио 3: Russian DTS-HD Master Audio / 5.1 / 48 kHz / 3672 kbps / 24 bits (DTS Core: 5.1 / 48 kHz / 1509 kbps / 24 bits) |den904 & DeadSno|
    Аудио 4: English DTS-HD Master Audio / 5.1 / 48 kHz / 3677 kbps / 24 bits (DTS Core: 5.1 / 48 kHz / 1509 kbps / 24 bits) |original|
    Формат субтитров: softsub [SRT]

    MediaInfo

    Общее
    Уникальный идентификатор                 : 206212320358098334608060185381210602805 (0x9B230C5B4960F5AA9F89053B1FFABD35)
    Полное имя                               : G:\HD\Мотель.2014.Blu-Ray.Remux.(1080p).mkv
    Формат                                   : Matroska
    Версия формата                           : Version 4 / Version 2
    Размер файла                             : 30,2 Гбайт
    Продолжительность                        : 1 ч. 48 м.
    Режим общего битрейта                    : Переменный
    Общий поток                              : 39,8 Мбит/сек
    Дата кодирования                         : UTC 2016-03-12 17:02:05
    Программа кодирования                    : mkvmerge v8.9.0 ('Father Daughter') 64bit
    Библиотека кодирования                   : libebml v1.3.3 + libmatroska v1.4.4
    Attachments                              : poster.jpg
    Видео
    Идентификатор                            : 1
    Формат                                   : AVC
    Формат/Информация                        : Advanced Video Codec
    Профиль формата                          : High@L4.1
    Параметр CABAC формата                   : Да
    Параметр ReFrames формата                : 4 кадра
    Идентификатор кодека                     : V_MPEG4/ISO/AVC
    Продолжительность                        : 1 ч. 48 м.
    Вид битрейта                             : Переменный
    Битрейт                                  : 31,5 Мбит/сек
    Максимальный битрейт                     : 35,0 Мбит/сек
    Ширина                                   : 1920 пикселей
    Высота                                   : 1080 пикселей
    Соотношение сторон                       : 16:9
    Режим частоты кадров                     : Постоянный
    Частота кадров                           : 23,976 (24000/1001) кадра/сек
    Цветовое пространство                    : YUV
    Субдискретизация насыщенности            : 4:2:0
    Битовая глубина                          : 8 бит
    Тип развёртки                            : Прогрессивная
    Бит/(Пиксели*Кадры)                      : 0.634
    Размер потока                            : 23,9 Гбайт (79%)
    Default                                  : Да
    Forced                                   : Нет
    Аудио #1
    Идентификатор                            : 2
    Формат                                   : AC-3
    Формат/Информация                        : Audio Coding 3
    Расширение режима                        : CM (complete main)
    Параметр Endianness формата              : Big
    Идентификатор кодека                     : A_AC3
    Продолжительность                        : 1 ч. 48 м.
    Вид битрейта                             : Постоянный
    Битрейт                                  : 448 Кбит/сек
    Каналы                                   : 6 каналов
    Расположение каналов                     : Front: L C R, Side: L R, LFE
    Частота                                  : 48,0 КГц
    Частота кадров                           : 31,250 кадров/сек (1536 spf)
    Метод сжатия                             : С потерями
    Размер потока                            : 348 Мбайт (1%)
    Заголовок                                : DVO, R5
    Язык                                     : Russian
    Default                                  : Да
    Forced                                   : Нет
    Аудио #2
    Идентификатор                            : 3
    Формат                                   : AC-3
    Формат/Информация                        : Audio Coding 3
    Расширение режима                        : CM (complete main)
    Параметр Endianness формата              : Big
    Идентификатор кодека                     : A_AC3
    Продолжительность                        : 1 ч. 48 м.
    Вид битрейта                             : Постоянный
    Битрейт                                  : 448 Кбит/сек
    Каналы                                   : 6 каналов
    Расположение каналов                     : Front: L C R, Side: L R, LFE
    Частота                                  : 48,0 КГц
    Частота кадров                           : 31,250 кадров/сек (1536 spf)
    Метод сжатия                             : С потерями
    Размер потока                            : 348 Мбайт (1%)
    Заголовок                                : А. Карповский
    Язык                                     : Russian
    Default                                  : Нет
    Forced                                   : Нет
    Аудио #3
    Идентификатор                            : 4
    Формат                                   : DTS
    Формат/Информация                        : Digital Theater Systems
    Профиль формата                          : MA / Core
    Режим                                    : 16
    Параметр Endianness формата              : Big
    Идентификатор кодека                     : A_DTS
    Продолжительность                        : 1 ч. 48 м.
    Вид битрейта                             : Переменный / Постоянный
    Битрейт                                  : 3672 Кбит/сек / 1509 Кбит/сек
    Каналы                                   : 6 каналов
    Расположение каналов                     : Front: L C R, Side: L R, LFE
    Частота                                  : 48,0 КГц
    Частота кадров                           : 93,750 кадра/сек (512 spf)
    Битовая глубина                          : 24 бит
    Метод сжатия                             : Без потерь / Lossy
    Размер потока                            : 2,79 Гбайт (9%)
    Заголовок                                : den904 & DeadSno
    Язык                                     : Russian
    Default                                  : Нет
    Forced                                   : Нет
    Аудио #4
    Идентификатор                            : 5
    Формат                                   : DTS
    Формат/Информация                        : Digital Theater Systems
    Профиль формата                          : MA / Core
    Режим                                    : 16
    Параметр Endianness формата              : Big
    Идентификатор кодека                     : A_DTS
    Продолжительность                        : 1 ч. 48 м.
    Вид битрейта                             : Переменный / Постоянный
    Битрейт                                  : 3677 Кбит/сек / 1509 Кбит/сек
    Каналы                                   : 6 каналов
    Расположение каналов                     : Front: L C R, Side: L R, LFE
    Частота                                  : 48,0 КГц
    Частота кадров                           : 93,750 кадра/сек (512 spf)
    Битовая глубина                          : 24 бит
    Метод сжатия                             : Без потерь / Lossy
    Размер потока                            : 2,79 Гбайт (9%)
    Язык                                     : English
    Default                                  : Нет
    Forced                                   : Нет
    Текст #1
    Идентификатор                            : 6
    Формат                                   : UTF-8
    Идентификатор кодека                     : S_TEXT/UTF8
    Идентификатор кодека/Информация          : UTF-8 Plain Text
    Продолжительность                        : 1 ч. 45 м.
    Битрейт                                  : 87 бит/сек
    Count of elements                        : 1289
    Размер потока                            : 67,8 Кбайт (0%)
    Заголовок                                : Janetta
    Язык                                     : Russian
    Default                                  : Нет
    Forced                                   : Нет
    Текст #2
    Идентификатор                            : 7
    Формат                                   : UTF-8
    Идентификатор кодека                     : S_TEXT/UTF8
    Идентификатор кодека/Информация          : UTF-8 Plain Text
    Продолжительность                        : 1 ч. 40 м.
    Битрейт                                  : 55 бит/сек
    Count of elements                        : 1392
    Размер потока                            : 41,2 Кбайт (0%)
    Заголовок                                : SDH
    Язык                                     : English
    Default                                  : Нет
    Forced                                   : Нет
    Меню
    00:00:00.000                             : :Chapter 01
    00:05:23.906                             : :Chapter 02
    00:09:49.589                             : :Chapter 03
    00:16:19.561                             : :Chapter 04
    00:19:49.188                             : :Chapter 05
    00:25:32.239                             : :Chapter 06
    00:30:45.718                             : :Chapter 07
    00:35:16.405                             : :Chapter 08
    00:41:58.724                             : :Chapter 09
    00:45:59.840                             : :Chapter 10
    00:49:18.372                             : :Chapter 11
    00:55:32.829                             : :Chapter 12
    00:59:39.993                             : :Chapter 13
    01:07:38.387                             : :Chapter 14
    01:12:25.674                             : :Chapter 15
    01:16:09.398                             : :Chapter 16
    01:24:45.580                             : :Chapter 17
    01:29:11.137                             : :Chapter 18
    01:36:35.080                             : :Chapter 19
    01:42:46.952                             : :Chapter 20

    Скриншоты


    Дополнительно
    Цитата:Дорожка №1 взята с [url=viewtopic.php?t=4953322]этой раздачи[/url] thx: italy777
    Цитата:Дорожка №2 взята с [url=viewtopic.php?t=5075569]этой раздачи[/url] thx: Fredd Kruger
    За перевод, данного фильма у Антона Карповского, выражается благодарность пользователям форума hdtracker и e180: zeleniydzhan, Wolf_Larsen, Xerman13, idalgo, Gennady 2013, Savely, Daniel Rock, vik19662007, Gross1978, KpucTo161, carnivale.
    Цитата:
    Цитата:

    Дорожка №3 получена наложением чистого голоса на центр декодированного DTS-HD MA.
    Скачать .torrent

    Скачать торрент-файл бесплатно и на максимальной скорости!

    Как скачивать? · Что такое торрент? · Рейтинг и ограничения

    !ВНИМАНИЕ!
    Сайт не распространяет и не хранит электронные версии произведений, а занимается лишь лишь предоставлением доступа к создаваемому пользователями каталогу ссылок на торрент-файлы, которые содержат только списки хеш-сумм, убедительная просьба с жалобами обращаться напрямую к пользователю. Файлы для обмена на трекере предоставлены пользователями сайта, и администрация не несёт ответственности за их содержание. Просьба не заливать файлы, защищенные авторскими правами, а также файлы нелегального содержания!


    _________________
    [Профиль] [ЛС]
    Показать сообщения:    
    Ответить на тему

    Текущее время: Сегодня, в 16:16

    Часовой пояс: GMT + 2



    Вы не можете начинать темы
    Вы не можете отвечать на сообщения
    Вы не можете редактировать свои сообщения
    Вы не можете удалять свои сообщения
    Вы не можете голосовать в опросах
    Вы не можете прикреплять файлы к сообщениям
    Вы не можете скачивать файлы