BitTorrentTracker PerecTracker.org
BitTorrentTracker PerecTracker.org
    
Регистрация  ·  Вход
 
 · 
Забыли пароль?

  • Личный интерес (Анатолий Григорьев) [2015, Украина, мелодрама, детектив, HDTV 1080i]

    Ответить на тему
     
    Автор Сообщение

    Flirldrerve

    Создавать темы 15-Мар-2016 01:22

           

    [Цитировать]

    Личный интерес--Страна: Украина
    Жанр: мелодрама, детектив
    Год выпуска: 2015
    Производство: «StarMedia»
    Продолжительность: 01:27:57
    Оригинальная аудиодорожка: русский
    Cубтитры: нет-Режиссер: Анатолий Григорьев-В ролях:
    Кирилл Жандаров, Галина Безрук, Алексей Нагрудный, Виктор Кузнецов, Ирма Витовская, Валерий Бассэль-Описание:
    Татьяна, совершив побег из колонии, поселяется в доме своей покойной бабушки в глухом селе Павловка. Там она встречает Максима, который приехал в деревню, чтобы отдохнуть от городской суеты. Между ними возникает взаимное чувство. Тем временем в Павловке появляется Олег — бывший жених Татьяны.
    Таня вынуждена рассказать Максиму всю правду о себе — о том, как она вместе с Олегом совершила ограбление, как взяла всю вину на себя и как сбежала из зоны.
    Максим заверяет любимую, что поможет ей и всегда будет рядом. Но не всё так просто: Максим не тот, за кого себя выдаёт…-Возраст: 12+-Качество: HDTV (1080i)
    Формат: TS
    Видео кодек: AVC
    Аудио кодек: MPEG Audio

    Видео: AVC, 1920 х 1080 (16:9), 25,000 кадр/сек, 7 860 Кбит/сек, 0.152 bit/pixel
    Аудио: MPEG Audio 2, 48000 Hz, 256 Kbps, 2 канала
    -

    MediaInfo

    General
    ID : 1 (0x1)
    Complete name : D:\Раздачи\Личный интерес HDTV (1080i)\Личный интерес HDTV (1080i).ts
    Format : MPEG-TS
    File size : 5.25 GiB
    Duration : 1h 27mn
    Overall bit rate mode : Variable
    Overall bit rate : 8 541 Kbps
    Video
    ID : 2911 (0xB5F)
    Menu ID : 1009 (0x3F1)
    Format : AVC
    Format/Info : Advanced Video Codec
    Format profile : High@L4
    Format settings, CABAC : Yes
    Format settings, ReFrames : 4 frames
    Codec ID : 27
    Duration : 1h 27mn
    Bit rate : 7 860 Kbps
    Width : 1 920 pixels
    Height : 1 080 pixels
    Display aspect ratio : 16:9
    Frame rate : 25.000 fps
    Color space : YUV
    Chroma subsampling : 4:2:0
    Bit depth : 8 bits
    Scan type : MBAFF
    Scan type, store method : Interleaved fields
    Scan order : Top Field First
    Bits/(Pixel*Frame) : 0.152
    Stream size : 4.83 GiB (92%)
    Audio
    ID : 2912 (0xB60)
    Menu ID : 1009 (0x3F1)
    Format : MPEG Audio
    Format version : Version 1
    Format profile : Layer 2
    Codec ID : 3
    Duration : 1h 27mn
    Bit rate mode : Constant
    Bit rate : 256 Kbps
    Channel(s) : 2 channels
    Sampling rate : 48.0 KHz
    Compression mode : Lossy
    Delay relative to video : -120ms
    Stream size : 161 MiB (3%)
    Language : Russian

    Скриншоты


    -Раздаю до первых 5-ти скачавших, на раздачи не возвращаюсь...-
    Скачать .torrent

    Скачать торрент-файл бесплатно и на максимальной скорости!

    Как скачивать? · Что такое торрент? · Рейтинг и ограничения

    !ВНИМАНИЕ!
    Сайт не распространяет и не хранит электронные версии произведений, а занимается лишь лишь предоставлением доступа к создаваемому пользователями каталогу ссылок на торрент-файлы, которые содержат только списки хеш-сумм, убедительная просьба с жалобами обращаться напрямую к пользователю. Файлы для обмена на трекере предоставлены пользователями сайта, и администрация не несёт ответственности за их содержание. Просьба не заливать файлы, защищенные авторскими правами, а также файлы нелегального содержания!


    _________________
    [Профиль] [ЛС]
    Показать сообщения:    
    Ответить на тему

    Текущее время: Сегодня, в 06:36

    Часовой пояс: GMT + 2



    Вы не можете начинать темы
    Вы не можете отвечать на сообщения
    Вы не можете редактировать свои сообщения
    Вы не можете удалять свои сообщения
    Вы не можете голосовать в опросах
    Вы не можете прикреплять файлы к сообщениям
    Вы не можете скачивать файлы