BitTorrentTracker PerecTracker.org
BitTorrentTracker PerecTracker.org
    
Регистрация  ·  Вход
 
 · 
Забыли пароль?

  • Один день / One Day (Лоне Шерфиг / Lone Scherfig) [2011, США, Великобритания, драма, мелодрама, BDRip] Dub BD

    Ответить на тему
     
    Автор Сообщение

    rechyn

    Создавать темы 15-Мар-2016 01:22

           

    [Цитировать]

    Один день / One Day
    «Не упусти свою любовь»
    -Страна: США, Великобритания / Color Force, Film4, Focus Features, Random House Films
    Жанр: драма, мелодрама
    Год выпуска: 2011
    Продолжительность: 01:47:28
    Перевод: Профессиональный (дублированный) лицензия BD
    Cубтитры: нет
    Режиссёр: Лоне Шерфиг / Lone Scherfig
    В ролях: Джим Стёрджесс, Энн Хэтэуэй, Рейф Сполл, Патришия Кларксон, Кен Стотт, Ромола Гарай, Джоди Уиттакер, Мэтт Берри, Джорджия Кинг, Том Мисон.
    Описание: Эмма — романтична, остра на язык и хочет изменить мир к лучшему. Декстер — плейбой, баловень судьбы и хочет, чтобы мир принадлежал ему.
    Впервые Эм и Декс встретились 15 июля на выпускном в колледже и провели вместе только один день. А потом пришла ночь, и они…решили остаться друзьями. Мы увидим их в тот же день через год, через два… Но сколько лет должно пройти, чтобы они поверили в свою любовь и поняли, как много значил для них этот ОДИН ДЕНЬ?-Рейтинг
    imdb.com: 7.0 (101 515)
    kinopoisk.ru: 7.752 (75 049)
    MPAA: - детям до 13 лет просмотр не желателен-Сэмпл: http://multi-up.com/1093072-Качество видео: BDRip [One.Day.2011.1080p.BD.Remux.US.Rus.Ukr.Eng.HDCLUB]
    Формат видео: AVI
    Видео: XviD build 66, 720x304 (2.37:1), 23.976 fps, ~1555 kbps avg, 0.296 bit/pixel
    Аудио: 48 kHz, AC3 Dolby Digital, 3/2 (L,C,R,l,r) + LFE ch, ~384 kbps avg (Dub)
    -

    MediaInfo

    Общее
    Полное имя : D:\One.Day.2011.Dub.BDRip.1,46Gb.XviD.AC3.avi
    Формат : AVI
    Формат/Информация : Audio Video Interleave
    Размер файла : 1,46 Гбайт
    Продолжительность : 1 ч. 47 м.
    Общий поток : 1948 Кбит/сек
    Название фильма : One Day 2011.
    Режиссёр : Lone Scherfig
    Дата записи : 04.03.2016
    Программа кодирования : VirtualDubModRus 1.5.10.2 (build 2542/release)
    Библиотека кодирования : VirtualDubMod build 2542/release
    Правообладатель : Rutracker.org
    Примечание : BDRip by MooN_WalkeR
    Видео
    Идентификатор : 0
    Формат : MPEG-4 Visual
    Профиль формата : Advanced Simple@L5
    Параметр BVOP формата : 1
    Параметр QPel формата : Нет
    Параметр GMC формата : Без точки перехода
    Параметр матрицы формата : Выборочная
    Идентификатор кодека : XVID
    Идентификатор кодека/Подсказка : XviD
    Продолжительность : 1 ч. 47 м.
    Битрейт : 1555 Кбит/сек
    Ширина : 720 пикселей
    Высота : 304 пикселя
    Соотношение сторон : 2,35:1
    Частота кадров : 23,976 кадра/сек
    Цветовое пространство : YUV
    Субдискретизация насыщенности : 4:2:0
    Битовая глубина : 8 бит
    Тип развёртки : Прогрессивная
    Метод сжатия : С потерями
    Бит/(Пиксели*Кадры) : 0.296
    Размер потока : 1,17 Гбайт (80%)
    Библиотека кодирования : XviD 66
    Аудио
    Идентификатор : 1
    Формат : AC-3
    Формат/Информация : Audio Coding 3
    Расширение режима : CM (complete main)
    Параметр Endianness формата : Big
    Идентификатор кодека : 2000
    Продолжительность : 1 ч. 47 м.
    Вид битрейта : Постоянный
    Битрейт : 384 Кбит/сек
    Каналы : 6 каналов
    Расположение каналов : Front: L C R, Side: L R, LFE
    Частота : 48,0 КГц
    Битовая глубина : 16 бит
    Метод сжатия : С потерями
    Размер потока : 295 Мбайт (20%)
    Выравнивание : Разделение по промежуткам
    Продолжительность промежутка : 42 мс. (1,00 видеокадр)
    Время предзагрузки промежутка : 500 мс.
    Заголовок : Dub

    Скриншоты


    Скачать .torrent

    Скачать торрент-файл бесплатно и на максимальной скорости!

    Как скачивать? · Что такое торрент? · Рейтинг и ограничения

    !ВНИМАНИЕ!
    Сайт не распространяет и не хранит электронные версии произведений, а занимается лишь лишь предоставлением доступа к создаваемому пользователями каталогу ссылок на торрент-файлы, которые содержат только списки хеш-сумм, убедительная просьба с жалобами обращаться напрямую к пользователю. Файлы для обмена на трекере предоставлены пользователями сайта, и администрация не несёт ответственности за их содержание. Просьба не заливать файлы, защищенные авторскими правами, а также файлы нелегального содержания!


    _________________
    [Профиль] [ЛС]
    Показать сообщения:    
    Ответить на тему

    Текущее время: Сегодня, в 04:04

    Часовой пояс: GMT + 2



    Вы не можете начинать темы
    Вы не можете отвечать на сообщения
    Вы не можете редактировать свои сообщения
    Вы не можете удалять свои сообщения
    Вы не можете голосовать в опросах
    Вы не можете прикреплять файлы к сообщениям
    Вы не можете скачивать файлы