BitTorrentTracker PerecTracker.org
BitTorrentTracker PerecTracker.org
    
Регистрация  ·  Вход
 
 · 
Забыли пароль?

  • Сотрясение / Concussions (Стэйси Пассон / Stacy Passoni) [2013, США, драма, WEB-DLRip] VO

    Ответить на тему
     
    Автор Сообщение

    Columb

    Создавать темы 11-Янв-2014 11:50

           

    [Цитировать]

    Сотрясение / Concussions
    Страна: США
    Жанр: драма
    Год выпуска: 2013
    Продолжительность: 01:36:04
    Перевод: Одноголосый закадровый
    Cубтитры: нет
    Режиссер: Стэйси Пассон / Stacie Passon
    В ролях: Робин Вайгерт, Мэгги Сифф, Джонатан Чайковский, Бен Шенкман, Джули Фэйн Лоуренс, Джанель Молони, Эмили Кинни, Лайла Робинс, Эшли Бил
    Описание: 42-летняя Эбби — состоятельная лесбиянка. У нее и ее супруги двое детей, и у них отличная семья. Но в один прекрасный день она получает травму головы, играя с детьми в бейсбол, и после этого все пошло наперекосяк…
    Доп. информация:
    Сэмпл: http://multi-up.com/939059
    Качество видео: WEB-DLRip
    Формат видео: AVI
    Видео: 720x304,23.976 fps,XviD build 50,886 kbps avg,0.17 bit/pixel
    Аудио: 44.100 kHz,MPEG Layer 3,2 ch,128.00 kbps avg

    MediaInfo

    Общее
    Полное имя : C:\Users\PC\Downloads\Concussions.2013.L1.WEB-DLRip.1400MB.avi
    Формат : AVI
    Формат/Информация : Audio Video Interleave
    Размер файла : 704 Мбайт
    Продолжительность : 1 ч. 36 м.
    Общий поток : 1024 Кбит/сек
    Программа кодирования : VirtualDubMod 1.5.10.3 | (build 2550/release)
    Библиотека кодирования : VirtualDubMod build 2550/release
    Видео
    Идентификатор : 0
    Формат : MPEG-4 Visual
    Профиль формата : Advanced Simple@L5
    Параметр BVOP формата : 2
    Параметр QPel формата : Нет
    Параметр GMC формата : Без точки перехода
    Параметр матрицы формата : Default (H.263)
    Идентификатор кодека : XVID
    Идентификатор кодека/Подсказка : XviD
    Продолжительность : 1 ч. 36 м.
    Битрейт : 887 Кбит/сек
    Ширина : 720 пикселей
    Высота : 304 пикселя
    Соотношение сторон : 2,35:1
    Частота кадров : 23,976 кадра/сек
    Цветовое пространство : YUV
    Субдискретизация насыщенности : 4:2:0
    Битовая глубина : 8 бит
    Тип развёртки : Прогрессивная
    Бит/(Пиксели*Кадры) : 0.169
    Размер потока : 609 Мбайт (87%)
    Библиотека кодирования : XviD 1.2.1 (UTC 2008-12-04)
    Аудио
    Идентификатор : 1
    Формат : MPEG Audio
    Версия формата : Version 1
    Профиль формата : Layer 3
    Идентификатор кодека : 55
    Идентификатор кодека/Подсказка : MP3
    Продолжительность : 1 ч. 36 м.
    Вид битрейта : Постоянный
    Битрейт : 128 Кбит/сек
    Каналы : 2 канала
    Частота : 44,1 КГц
    Размер потока : 88,0 Мбайт (12%)
    Выравнивание : Разделение по промежуткам
    Продолжительность промежутка : 42 мс. (1,00 видеокадр)
    Время предзагрузки промежутка : 500 мс.
    Библиотека кодирования : LAME3.99r
    Настройки программы : -m s -V 4 -q 2 -lowpass 17 -b 128

    Скриншот c названием фильма

    Скриншоты

    Скачать .torrent

    Скачать торрент-файл бесплатно и на максимальной скорости!

    Как скачивать? · Что такое торрент? · Рейтинг и ограничения

    !ВНИМАНИЕ!
    Сайт не распространяет и не хранит электронные версии произведений, а занимается лишь лишь предоставлением доступа к создаваемому пользователями каталогу ссылок на торрент-файлы, которые содержат только списки хеш-сумм, убедительная просьба с жалобами обращаться напрямую к пользователю. Файлы для обмена на трекере предоставлены пользователями сайта, и администрация не несёт ответственности за их содержание. Просьба не заливать файлы, защищенные авторскими правами, а также файлы нелегального содержания!

    [Профиль] [ЛС]
    Показать сообщения:    
    Ответить на тему

    Текущее время: Сегодня, в 06:08

    Часовой пояс: GMT + 2



    Вы не можете начинать темы
    Вы не можете отвечать на сообщения
    Вы не можете редактировать свои сообщения
    Вы не можете удалять свои сообщения
    Вы не можете голосовать в опросах
    Вы не можете прикреплять файлы к сообщениям
    Вы не можете скачивать файлы