BitTorrentTracker PerecTracker.org
BitTorrentTracker PerecTracker.org
    
Регистрация  ·  Вход
 
 · 
Забыли пароль?

  • Прогулка среди могил / A Walk Among the Tombstones (Скотт Фрэнк / Scott Frank) [2014, США, Боевик, триллер, криминал, детектив, BDRip 720p] DUB + AVO + 2xVO + DVO + Sub Eng, Rus + Original Eng

    Ответить на тему
     
    Автор Сообщение

    Flirldrerve

    Создавать темы 14-Мар-2016 21:10

           

    [Цитировать]

    Прогулка среди могил / A Walk Among the Tombstones
    Страна: США
    Жанр: Боевик, триллер, криминал, детектив
    Год выпуска: 2014
    Продолжительность: 01:54:05
    Перевод 1: Профессиональный (дублированный) | IPTV |
    Перевод 2: Авторский (одноголосый закадровый) | Гаврилов А. |
    Перевод 3: Одноголосый закадровый | Есарев Д. |
    Перевод 4: Одноголосый закадровый | Есарев Д. [без цензуры] |
    Перевод 5: Любительский (двухголосый закадровый) | Сладкая парочка |
    Cубтитры: русские, английские
    Оригинальная аудиодорожка: английский--Режиссер: Скотт Фрэнк / Scott Frank--В ролях: Лиам Нисон, Дэн Стивенс, Дэвид Харбор, Бойд Холбрук, Себастьян Роше, Астро, Уитни Эйбл, Стефани Андужар, Марина Скверсьяти, Марк Консуэлос, Ким Розен, Разан Джаммаль, Стефани Андухар...--Описание: Нью-Йорк охватывает волна странных и страшных убийств. Муж одной из жертв, наркобарон, нанимает бывшего полицейского, чтобы тот добрался до убийцы жены. Частный детектив Скаддер видит то, чего не замечает полиция, и проникает туда, куда копы боятся даже сунуть нос. Распутывая дьявольские преступления, он понимает, что люди боятся совсем не того.--Доп. информация: Kinopoisk | IMDB | Sample |--Тип релиза: BDRip 720p
    Контейнер: MKV
    Видео: MPEG-4 AVC, 1280x536, 6 352 kbps avg, 23.976 fps
    Аудио 5: 48 kHz, AC3 Dolby Digital, 5.1 (L,R) ch, 384 kbps | Дубляж |
    Аудио 2: 48 kHz, DTS, 3/2 (L,C,R,l,r) + LFE ch, 1536.00 kbps | Гаврилов А. |
    Аудио 3: 48 kHz, DTS, 3/2 (L,C,R,l,r) + LFE ch, 1536.00 kbps | Есарев Д. |
    Аудио 4: 48 kHz, DTS, 3/2 (L,C,R,l,r) + LFE ch, 1536.00 kbps | Есарев Д. [без цензуры] |
    Аудио 5: 48 kHz, AC3 Dolby Digital, 2/0 (L,R) ch, 384 kbps | Сладкая парочка |
    Аудио 6: 48 kHz, DTS, 3/2 (L,C,R,l,r) + LFE ch, 1536.00 kbps avg
    Формат субтитров: softsub (SRT)

    MediaInfo

    General
    Unique ID : 248681197557616935766873352714486744416 (0xBB1641A9DE3211108BF79B970E330560)
    Complete name : A Walk Among the Tombstones (2014).mkv
    Format : Matroska
    Format version : Version 4 / Version 2
    File size : 10.7 GiB
    Duration : 1h 54mn
    Overall bit rate : 13.4 Mbps
    Movie name : Прогулка среди могил / A Walk Among the Tombstones (2014)
    Encoded date : UTC 2016-03-14 13:40:44
    Writing application : mkvmerge v8.1.0 ('Psychedelic Postcard') 64bit
    Writing library : libebml v1.3.1 + libmatroska v1.4.2
    Cover : Yes
    Attachments : cover.jpg
    Video
    ID : 1
    Format : AVC
    Format/Info : Advanced Video Codec
    Format profile : High@L4.1
    Format settings, CABAC : Yes
    Format settings, ReFrames : 12 frames
    Codec ID : V_MPEG4/ISO/AVC
    Duration : 1h 54mn
    Bit rate : 6 576 Kbps
    Width : 1 280 pixels
    Height : 536 pixels
    Display aspect ratio : 2.40:1
    Frame rate mode : Constant
    Frame rate : 23.976 (24000/1001) fps
    Color space : YUV
    Chroma subsampling : 4:2:0
    Bit depth : 8 bits
    Scan type : Progressive
    Bits/(Pixel*Frame) : 0.400
    Stream size : 5.24 GiB (49%)
    Title : A Walk Among the Tombstones
    Writing library : x264 core 144 r2525kMod 40bb568
    Encoding settings : cabac=1 / ref=12 / deblock=1:-3:-3 / analyse=0x3:0x133 / me=umh / subme=10 / psy=1 / fade_compensate=0.00 / psy_rd=1.00:0.00 / mixed_ref=1 / me_range=24 / chroma_me=1 / trellis=2 / 8x8dct=1 / cqm=0 / deadzone=21,11 / fast_pskip=1 / chroma_qp_offset=-2 / threads=12 / lookahead_threads=3 / sliced_threads=0 / nr=0 / decimate=1 / interlaced=0 / bluray_compat=0 / constrained_intra=0 / fgo=0 / bframes=11 / b_pyramid=2 / b_adapt=2 / b_bias=0 / direct=3 / weightb=1 / open_gop=0 / weightp=2 / keyint=250 / keyint_min=23 / scenecut=40 / intra_refresh=0 / rc=crf / mbtree=0 / crf=14.8000 / qcomp=0.60 / qpmin=0 / qpmax=69 / qpstep=4 / ip_ratio=1.20 / pb_ratio=1.10 / aq=3:0.65
    Language : English
    Default : Yes
    Forced : No
    Color range : Limited
    Matrix coefficients : BT.709
    Audio #1
    ID : 2
    Format : AC-3
    Format/Info : Audio Coding 3
    Mode extension : CM (complete main)
    Format settings, Endianness : Big
    Codec ID : A_AC3
    Duration : 1h 54mn
    Bit rate mode : Constant
    Bit rate : 384 Kbps
    Channel(s) : 6 channels
    Channel positions : Front: L C R, Side: L R, LFE
    Sampling rate : 48.0 KHz
    Frame rate : 31.250 fps (1536 spf)
    Compression mode : Lossy
    Stream size : 313 MiB (3%)
    Title : Дубляж
    Language : Russian
    Default : Yes
    Forced : No
    Audio #2
    ID : 3
    Format : DTS
    Format/Info : Digital Theater Systems
    Mode : 16
    Format settings, Endianness : Big
    Codec ID : A_DTS
    Duration : 1h 53mn
    Bit rate mode : Constant
    Bit rate : 1 510 Kbps
    Channel(s) : 6 channels
    Channel positions : Front: L C R, Side: L R, LFE
    Sampling rate : 48.0 KHz
    Frame rate : 93.750 fps (512 spf)
    Bit depth : 24 bits
    Compression mode : Lossy
    Stream size : 1.20 GiB (11%)
    Title : Авторский (одноголосый закадровый) Гаврилов А.
    Language : Russian
    Default : No
    Forced : No
    Audio #3
    ID : 4
    Format : DTS
    Format/Info : Digital Theater Systems
    Mode : 16
    Format settings, Endianness : Big
    Codec ID : A_DTS
    Duration : 1h 54mn
    Bit rate mode : Constant
    Bit rate : 1 510 Kbps
    Channel(s) : 6 channels
    Channel positions : Front: L C R, Side: L R, LFE
    Sampling rate : 48.0 KHz
    Frame rate : 93.750 fps (512 spf)
    Bit depth : 24 bits
    Compression mode : Lossy
    Stream size : 1.20 GiB (11%)
    Title : Одноголосый закадровый. Есарев Д.
    Language : Russian
    Default : No
    Forced : No
    Audio #4
    ID : 5
    Format : DTS
    Format/Info : Digital Theater Systems
    Mode : 16
    Format settings, Endianness : Big
    Codec ID : A_DTS
    Duration : 1h 54mn
    Bit rate mode : Constant
    Bit rate : 1 510 Kbps
    Channel(s) : 6 channels
    Channel positions : Front: L C R, Side: L R, LFE
    Sampling rate : 48.0 KHz
    Frame rate : 93.750 fps (512 spf)
    Bit depth : 24 bits
    Compression mode : Lossy
    Stream size : 1.20 GiB (11%)
    Title : Одноголосый закадровый. Есарев Д. (без цензуры)
    Language : Russian
    Default : No
    Forced : No
    Audio #5
    ID : 6
    Format : AC-3
    Format/Info : Audio Coding 3
    Mode extension : CM (complete main)
    Format settings, Endianness : Big
    Codec ID : A_AC3
    Duration : 1h 54mn
    Bit rate mode : Constant
    Bit rate : 384 Kbps
    Channel(s) : 2 channels
    Channel positions : Front: L R
    Sampling rate : 48.0 KHz
    Frame rate : 31.250 fps (1536 spf)
    Compression mode : Lossy
    Stream size : 313 MiB (3%)
    Title : Любительский (двухголосый закадровый) Сладкая парочка
    Language : Russian
    Default : No
    Forced : No
    Audio #6
    ID : 7
    Format : DTS
    Format/Info : Digital Theater Systems
    Mode : 16
    Format settings, Endianness : Big
    Codec ID : A_DTS
    Duration : 1h 54mn
    Bit rate mode : Constant
    Bit rate : 1 509 Kbps
    Channel(s) : 6 channels
    Channel positions : Front: L C R, Side: L R, LFE
    Sampling rate : 48.0 KHz
    Frame rate : 93.750 fps (512 spf)
    Bit depth : 24 bits
    Compression mode : Lossy
    Stream size : 1.20 GiB (11%)
    Language : English
    Default : No
    Forced : No
    Text #1
    ID : 8
    Format : UTF-8
    Codec ID : S_TEXT/UTF8
    Codec ID/Info : UTF-8 Plain Text
    Duration : 1h 46mn
    Bit rate : 102 bps
    Count of elements : 1434
    Stream size : 79.9 KiB (0%)
    Language : Russian
    Default : No
    Forced : No
    Text #2
    ID : 9
    Format : UTF-8
    Codec ID : S_TEXT/UTF8
    Codec ID/Info : UTF-8 Plain Text
    Duration : 1h 46mn
    Bit rate : 59 bps
    Count of elements : 1488
    Stream size : 46.2 KiB (0%)
    Language : English
    Default : No
    Forced : No
    Text #3
    ID : 10
    Format : UTF-8
    Codec ID : S_TEXT/UTF8
    Codec ID/Info : UTF-8 Plain Text
    Duration : 1h 46mn
    Bit rate : 62 bps
    Count of elements : 1605
    Stream size : 49.2 KiB (0%)
    Title : SDH
    Language : English
    Default : No
    Forced : No
    Menu
    00:00:00.000 : en:00:00:00.000
    00:06:05.490 : en:00:06:05.490
    00:12:23.576 : en:00:12:23.576
    00:19:49.730 : en:00:19:49.730
    00:25:04.378 : en:00:25:04.378
    00:31:19.377 : en:00:31:19.377
    00:37:34.127 : en:00:37:34.127
    00:42:39.682 : en:00:42:39.682
    00:48:59.061 : en:00:48:59.061
    00:55:30.452 : en:00:55:30.452
    01:02:32.540 : en:01:02:32.540
    01:07:45.019 : en:01:07:45.019
    01:12:31.305 : en:01:12:31.305
    01:16:49.980 : en:01:16:49.980
    01:24:01.036 : en:01:24:01.036
    01:28:31.056 : en:01:28:31.056
    01:35:01.321 : en:01:35:01.321
    01:39:32.049 : en:01:39:32.049
    01:44:18.711 : en:01:44:18.711
    01:50:10.729 : en:01:50:10.729

    Скриншоты

    Скачать .torrent

    Скачать торрент-файл бесплатно и на максимальной скорости!

    Как скачивать? · Что такое торрент? · Рейтинг и ограничения

    !ВНИМАНИЕ!
    Сайт не распространяет и не хранит электронные версии произведений, а занимается лишь лишь предоставлением доступа к создаваемому пользователями каталогу ссылок на торрент-файлы, которые содержат только списки хеш-сумм, убедительная просьба с жалобами обращаться напрямую к пользователю. Файлы для обмена на трекере предоставлены пользователями сайта, и администрация не несёт ответственности за их содержание. Просьба не заливать файлы, защищенные авторскими правами, а также файлы нелегального содержания!


    _________________
    [Профиль] [ЛС]
    Показать сообщения:    
    Ответить на тему

    Текущее время: Сегодня, в 07:50

    Часовой пояс: GMT + 2



    Вы не можете начинать темы
    Вы не можете отвечать на сообщения
    Вы не можете редактировать свои сообщения
    Вы не можете удалять свои сообщения
    Вы не можете голосовать в опросах
    Вы не можете прикреплять файлы к сообщениям
    Вы не можете скачивать файлы