BitTorrentTracker PerecTracker.org
BitTorrentTracker PerecTracker.org
    
Регистрация  ·  Вход
 
 · 
Забыли пароль?

  • Свет и тень маяка / Серии: 1-110 из 110 (Наталия Микрюкова, Сергей Терещук) [2016, Криминальная драма, HDTVRip]

    Ответить на тему
     
    Автор Сообщение

    rechyn

    Создавать темы 14-Мар-2016 20:59

           

    [Цитировать]

    Свет и тень маяка
    Год выпуска: 2016
    Производство: Мостелефильм по заказу НТВ
    Жанр: Криминальная драма
    Продолжительность: ~0:41:00 серия
    Субтитры: нет
    Режиссёр: Наталия Микрюкова, Сергей Терещук
    В ролях: Марина Волкова, Владимир Стеклов, Андрей Стоянов, Евгений Ефремов, Татьяна Догилева, Алексей Янин, Татьяна Храмова (II), Михаил Горевой, Валерий Баринов, Максим Литовченко, Елена Беркова, Владимир Миняйло, Юлия Вайшнур, Евгений Атарик, Виктор Сарайкин, Вадим Головко, Ярослав Гуревич
    Описание: На окраине тихого приморского городка стоит старый маяк, указывающий путь заплутавшим кораблям. Его смотритель, Александр Никифорович Тихонов только внешне кажется простым, ничем не примечательным обывателем, на самом деле, он - главарь банды контрабандистов. Его дочь Татьяна, 20-летняя студентка университета, милая и добрая девушка, совершенно не в курсе темных дел своего отца. Она знает только его «светлую» сторону, жалеет из-за скоропостижной кончины матери, старается окружить заботой и вниманием. В свое время на след банды Тихона вышел один из сотрудников полиции – майор Константин Кравченко. Тихон и Кравченко смогли договориться, и с тех пор корыстный, расчетливый майор прикрывает деятельность преступников, получая свою долю прибыли.
    К тому же Кравченко, привыкший добиваться всего, что пожелает, выбрал себе в невесты Татьяну за ее кроткий нрав и доброе сердце. Он долго ухаживал за девушкой и даже сделал ей предложение, пребывая в полной уверенности, что вопрос с их браком решен. Но все меняется, когда в Приморск приезжает младший брат Константина, Олег Игнатьев, также работающий в полиции. На пляже Олег случайно знакомится с Татьяной. Девушка в него влюбляется.
    На пути у любви Олега и Татьяны множество недоброжелателей: завистливая подруга Галина, ревнующий Константин, разнообразные бандиты, конкурирующие с Тихоном и желающие причинить ему вред.
    Все раздачи сериала: Свет и тень маяка
    Семпл
    Качество: HDTVRip
    Формат: AVI
    Видео кодек: XviD
    Аудио кодек: АС-3
    Видео: 720x400 (1.80:1), 25 fps, XviD build 50 ~1550 kbps avg, 0.214 bit/pixel
    Аудио: 48 kHz, AC3 Dolby Digital, 2/0 (L,R) ch, ~192.00 kbps avg
    Сторонней рекламы нет!

    MediaInfo

    General
    Complete name : Y:\раздачи\Свет и тень маяка.2014.HDTVRip.RG.Russkie.serialy.&.Files-x.Свет и тень маяка.2014.HDTVRip.RG.Russkie.serialy.&.Files-x.avi
    Format : AVI
    Format/Info : Audio Video Interleave
    File size : 499 MiB
    Duration : 39mn 49s
    Overall bit rate : 1 752 Kbps
    Writing application : VirtualDubMod 1.5.10.3 | www.virtualdub-fr.org || (build 2550/release)
    Writing library : VirtualDubMod build 2550/release
    Video
    ID : 0
    Format : MPEG-4 Visual
    Format profile : Advanced Simple@L5
    Format settings, BVOP : 1
    Format settings, QPel : No
    Format settings, GMC : No warppoints
    Format settings, Matrix : Custom
    Codec ID : XVID
    Codec ID/Hint : XviD
    Duration : 39mn 49s
    Bit rate : 1 551 Kbps
    Width : 720 pixels
    Height : 400 pixels
    Display aspect ratio : 16:9
    Frame rate : 25.000 fps
    Color space : YUV
    Chroma subsampling : 4:2:0
    Bit depth : 8 bits
    Scan type : Progressive
    Compression mode : Lossy
    Bits/(Pixel*Frame) : 0.215
    Stream size : 442 MiB (88%)
    Writing library : XviD 73
    Audio
    ID : 1
    Format : AC-3
    Format/Info : Audio Coding 3
    Mode extension : CM (complete main)
    Format settings, Endianness : Big
    Codec ID : 2000
    Duration : 39mn 49s
    Bit rate mode : Constant
    Bit rate : 192 Kbps
    Channel(s) : 2 channels
    Channel positions : Front: L R
    Sampling rate : 48.0 KHz
    Compression mode : Lossy
    Stream size : 54.7 MiB (11%)
    Alignment : Split accross interleaves
    Interleave, duration : 40 ms (1.00 video frame)
    Interleave, preload duratio : 500 ms
    Рип:
    Отдельная громадная благодарность Media-Art-Club за созданный постер к раздаче.

    Скриншоты

    Скачать .torrent

    Скачать торрент-файл бесплатно и на максимальной скорости!

    Как скачивать? · Что такое торрент? · Рейтинг и ограничения

    !ВНИМАНИЕ!
    Сайт не распространяет и не хранит электронные версии произведений, а занимается лишь лишь предоставлением доступа к создаваемому пользователями каталогу ссылок на торрент-файлы, которые содержат только списки хеш-сумм, убедительная просьба с жалобами обращаться напрямую к пользователю. Файлы для обмена на трекере предоставлены пользователями сайта, и администрация не несёт ответственности за их содержание. Просьба не заливать файлы, защищенные авторскими правами, а также файлы нелегального содержания!


    _________________
    [Профиль] [ЛС]
    Показать сообщения:    
    Ответить на тему

    Текущее время: Сегодня, в 10:13

    Часовой пояс: GMT + 2



    Вы не можете начинать темы
    Вы не можете отвечать на сообщения
    Вы не можете редактировать свои сообщения
    Вы не можете удалять свои сообщения
    Вы не можете голосовать в опросах
    Вы не можете прикреплять файлы к сообщениям
    Вы не можете скачивать файлы