BitTorrentTracker PerecTracker.org
BitTorrentTracker PerecTracker.org
    
Регистрация  ·  Вход
 
 · 
Забыли пароль?

  • [ATV3] Трамбо / Trumbo (Джей Роуч / Jay Roach ) [2015, США, Драма, биография, BDRip, HD (1080p)] MVO + Original + sub (eng)

    Ответить на тему
     
    Автор Сообщение

    Flirldrerve

    Создавать темы 14-Мар-2016 16:58

           

    [Цитировать]

    Трамбо / Trumbo
    «Are you now or have you ever been...»
    7.314 / 10 7.50 / 10
    -Год выпуска: 2015
    Страна: США
    Жанр: Драма, биография
    Продолжительность: 02:04:09
    Перевод: Многоголосый закадровый (iTunes)
    Оригинальная аудиодорожка: Есть
    Cубтитры: Английские
    Режиссёр: Джей Роуч
    Сценарий: Джон МакНамара, Брюс Кук
    Продюсер: Кевин Келли Браун, Моника Левинсон, Майкл Лондон
    Оператор: Джим Дено
    Композитор: Теодор Шапиро
    Художник: Марк Рикер, Лиза Маринаццио, Джесси Розенталь
    Монтаж: Алан Баумгартен
    В ролях: Брайан Крэнстон, Дайан Лэйн, Хелен Миррен, Луис С.К., Эль Фаннинг, Джон Гудман, Майкл Стулбарг, Алан Тьюдик, Адевале Акинойе-Агбаже, Дин О’Горман
    Сборы в США: $7 857 741
    Сборы в мире: + $377 920 = $8 235 661
    Сборы в России: $51 443
    Мировая премьера: 12 сентября 2015
    Премьера (РФ): 18 февраля 2016, «Парадиз»
    Описание: Далтон Трамбо, один из самых успешных голливудских сценаристов, автор «Римских каникул» и «Спартака», не подозревал, что черный список «Hollywood 10» реально существует, пока сам не попал туда и не был навсегда выкинут из жизни фабрики грез…-Качество исходника: Blu-Ray (BlueBird)
    Качество: BDRip
    Тип: HD (1080p)
    Контейнер: M4V
    Видео: H.264, 1920x1040, 1.85:1, 8 000 Kbps, 23.976 (24000/1001) fps
    Аудио 1: Русский/Многоголосый закадровый (iTunes), AAC / 2.0 / 155 Kbps / 48.0 KHz
    Аудио 2: Английский/Оригинальная дорожка , AAC / 2.0 / 154 Kbps / 48.0 KHz
    Аудио 3: Русский/Многоголосый закадровый (iTunes), AC-3 / 5.1 / 384 Kbps / 48.0 KHz
    Аудио 4: Английский/Оригинальная дорожка , AC-3 / 5.1 / 640 Kbps / 48.0 KHz
    Субтитры: Английские полные
    -

    iTunes Meta Tags

    Sort Name: Trumbo
    XID: Apple:vendor_id:2015-799728
    contentID: 1050323837
    Copyright: © 2015 Bleecker Street Media LLC. All Rights Reserved.
    Screenwriters: Джон МакНамара, Брюс Кук
    Producers: Кевин Келли Браун, Моника Левинсон, Майкл Лондон
    Director: Джей Роуч
    Cast: Брайан Крэнстон, Дайан Лэйн, Хелен Миррен, Майкл Стулбарг, Дэвид Мальдонадо, Джон Гец, Лаура Флэннери, Дэвид Джеймс Эллиотт, Тоби Николс, Джозеф С. Мартино
    Studio: Bleecker Street
    Rating: 5
    Long Description: Далтон Трамбо, один из самых успешных голливудских сценаристов, автор "Римских каникул" и "Спартака", не подозревал, что черный список "Hollywood 10" реально существует, пока сам не попал туда и не был навсегда выкинут из жизни фабрики грез...
    Description: Далтон Трамбо, один из самых успешных голливудских сценаристов, автор "Римских каникул" и "Спартака", не подозревал, что черный список "Hollywood 10" реально существует, пока сам не попал туда и не был навсегда выкинут из жизни фабрики грез...
    Release Date: 2015-09-12T08:00:00Z
    Genre: Drama
    Artist: Jay Roach
    Name: Trumbo (2015)

    MediaInfo

    General
    Complete name : /Users/imac/HandBrake/Trumbo (1080p HD).m4v
    Format : MPEG-4
    Codec ID : M4V  (M4V /M4A /mp42/isom)
    File size : 8.13 GiB
    Duration : 2h 4mn
    Overall bit rate mode : Variable
    Overall bit rate : 9 336 Kbps
    Movie name : Trumbo (2015)
    Performer : Jay Roach
    Director : Джей Роуч
    Actor : Брайан Крэнстон / Дайан Лэйн / Хелен Миррен / Майкл Стулбарг / Дэвид Мальдонадо / Джон Гец / Лаура Флэннери / Дэвид Джеймс Эллиотт / Тоби Николс / Джозеф С. Мартино
    Screenplay by : Джон МакНамара / Брюс Кук
    Producer : Кевин Келли Браун / Моника Левинсон / Майкл Лондон
    Production studio : Bleecker Street
    Genre : Drama
    ContentType : Short Film
    Description : Далтон Трамбо, один из самых успешных голливудских сценаристов, автор "Римских каникул" и "Спартака", не подозревал, что черный список "Hollywood 10" реально существует, пока сам не попал туда и не был навсегда выкинут из жизни фабрики грез...
    Recorded date : UTC 2015-09-12 08:00:00
    Encoded date : UTC 2016-03-14 08:31:04
    Tagged date : UTC 2016-03-14 08:46:47
    Copyright : © 2015 Bleecker Street Media LLC. All Rights Reserved.
    Cover : Yes
    Rating : None
    Title/Sort : Trumbo
    LongDescription : Далтон Трамбо, один из самых успешных голливудских сценаристов, автор "Римских каникул" и "Спартака", не подозревал, что черный список "Hollywood 10" реально существует, пока сам не попал туда и не был навсегда выкинут из жизни фабрики грез...
    AppleStoreCatalogID : 1050323837
    Vendor : Apple:vendor_id:2015-799728
    ContentRating : mpaa|R|400|
    Video #1
    ID : 1
    Format : AVC
    Format/Info : Advanced Video Codec
    Format profile : High@L4
    Format settings, CABAC : Yes
    Format settings, ReFrames : 4 frames
    Codec ID : avc1
    Codec ID/Info : Advanced Video Coding
    Duration : 2h 4mn
    Source duration : 2h 4mn
    Bit rate : 8 000 Kbps
    Width : 1 920 pixels
    Height : 1 040 pixels
    Display aspect ratio : 1.85:1
    Frame rate mode : Variable
    Frame rate : 23.976 (24000/1001) fps
    Minimum frame rate : 23.810 fps
    Maximum frame rate : 24.272 fps
    Color space : YUV
    Chroma subsampling : 4:2:0
    Bit depth : 8 bits
    Scan type : Progressive
    Bits/(Pixel*Frame) : 0.167
    Stream size : 6.95 GiB (86%)
    Source stream size : 6.95 GiB (86%)
    Title : Main Program
    Writing library : x264 core 142 r2479 dd79a61
    Encoding settings : cabac=1 / ref=4 / deblock=1:-2:-2 / analyse=0x3:0x133 / me=umh / subme=10 / psy=1 / psy_rd=1.00:0.15 / mixed_ref=1 / me_range=32 / chroma_me=1 / trellis=2 / 8x8dct=1 / cqm=0 / deadzone=21,11 / fast_pskip=0 / chroma_qp_offset=-3 / threads=36 / lookahead_threads=8 / sliced_threads=0 / nr=0 / decimate=0 / interlaced=0 / bluray_compat=0 / constrained_intra=0 / bframes=16 / b_pyramid=2 / b_adapt=2 / b_bias=0 / direct=3 / weightb=1 / open_gop=0 / weightp=2 / keyint=240 / keyint_min=24 / scenecut=40 / intra_refresh=0 / rc_lookahead=60 / rc=2pass / mbtree=1 / bitrate=8000 / ratetol=1.0 / qcomp=0.70 / qpmin=0 / qpmax=69 / qpstep=4 / cplxblur=20.0 / qblur=0.5 / vbv_maxrate=25000 / vbv_bufsize=25000 / nal_hrd=none / filler=0 / ip_ratio=1.40 / aq=1:1.00
    Language : English
    Encoded date : UTC 2016-03-14 08:31:04
    Tagged date : UTC 2016-03-14 08:31:20
    Color range : Limited
    Color primaries : BT.709
    Transfer characteristics : BT.709
    Matrix coefficients : BT.709
    Menus : 7,8
    Video #2
    ID : 8
    Format : JPEG
    Codec ID : jpeg
    Duration : 2h 4mn
    Duration_LastFrame : 2h 4mn
    Bit rate mode : Constant
    Bit rate : 9 923 bps
    Width : 640 pixels
    Height : 346 pixels
    Display aspect ratio : 1.85:1
    Frame rate : 0.048 fps
    Color space : YUV
    Chroma subsampling : 4:2:0
    Bit depth : 8 bits
    Compression mode : Lossy
    Bits/(Pixel*Frame) : 0.934
    Stream size : 8.85 MiB (0%)
    Title : Chapter Images
    Language : English
    Default : No
    Encoded date : UTC 2016-03-14 08:33:43
    Tagged date : UTC 2016-03-14 08:33:55
    Menu For : 1
    Audio #1
    ID : 2
    Format : AAC
    Format/Info : Advanced Audio Codec
    Format profile : LC
    Codec ID : 40
    Duration : 2h 4mn
    Bit rate mode : Variable
    Bit rate : 155 Kbps
    Maximum bit rate : 253 Kbps
    Channel(s) : 2 channels
    Channel positions : Front: L R
    Sampling rate : 48.0 KHz
    Frame rate : 46.875 fps (1024 spf)
    Compression mode : Lossy
    Stream size : 138 MiB (2%)
    Title : Russian Stereo
    Language : Russian
    Default : Yes
    Alternate group : 1
    Encoded date : UTC 2016-03-14 08:31:04
    Tagged date : UTC 2016-03-14 08:31:22
    Fallback From : 4
    Menus : 7
    Audio #2
    ID : 3
    Format : AAC
    Format/Info : Advanced Audio Codec
    Format profile : LC
    Codec ID : 40
    Duration : 2h 4mn
    Bit rate mode : Variable
    Bit rate : 154 Kbps
    Maximum bit rate : 274 Kbps
    Channel(s) : 2 channels
    Channel positions : Front: L R
    Sampling rate : 48.0 KHz
    Frame rate : 46.875 fps (1024 spf)
    Compression mode : Lossy
    Stream size : 137 MiB (2%)
    Title : English Stereo
    Language : English
    Default : No
    Alternate group : 1
    Encoded date : UTC 2016-03-14 08:31:04
    Tagged date : UTC 2016-03-14 08:31:21
    Fallback From : 5
    Audio #3
    ID : 4
    Format : AC-3
    Format/Info : Audio Coding 3
    Mode extension : CM (complete main)
    Format settings, Endianness : Big
    Codec ID : ac-3
    Duration : 2h 4mn
    Bit rate mode : Constant
    Bit rate : 384 Kbps
    Channel(s) : 6 channels
    Channel positions : Front: L C R, Side: L R, LFE
    Sampling rate : 48.0 KHz
    Frame rate : 31.250 fps (1536 spf)
    Bit depth : 16 bits
    Compression mode : Lossy
    Stream size : 342 MiB (4%)
    Title : Russian DD 5.1
    Language : Russian
    Default : Inherited From: 2
    Alternate group : 1
    Encoded date : UTC 2016-03-14 08:31:04
    Tagged date : UTC 2016-03-14 08:31:12
    Fallback To : 2
    Audio #4
    ID : 5
    Format : AC-3
    Format/Info : Audio Coding 3
    Mode extension : CM (complete main)
    Format settings, Endianness : Big
    Codec ID : ac-3
    Duration : 2h 4mn
    Bit rate mode : Constant
    Bit rate : 640 Kbps
    Channel(s) : 6 channels
    Channel positions : Front: L C R, Side: L R, LFE
    Sampling rate : 48.0 KHz
    Frame rate : 31.250 fps (1536 spf)
    Bit depth : 16 bits
    Compression mode : Lossy
    Stream size : 571 MiB (7%)
    Title : English DD 5.1
    Language : English
    Default : No
    Alternate group : 1
    Encoded date : UTC 2016-03-14 08:31:04
    Tagged date : UTC 2016-03-14 08:31:12
    Fallback To : 3
    Text
    ID : 6
    Format : Timed Text
    Muxing mode : sbtl
    Codec ID : tx3g
    Duration : 2h 1mn
    Bit rate mode : Variable
    Bit rate : 100 bps
    Stream size : 89.2 KiB (0%)
    Title : English full
    Language : English
    Default : Yes
    Forced : No
    Alternate group : 2
    Encoded date : UTC 2016-03-14 08:31:04
    Tagged date : UTC 2016-03-14 08:31:05
    Menu
    ID : 2
    Codec ID : text
    Duration : 2h 4mn
    Language : English
    Encoded date : UTC 2016-03-13 21:13:00
    Tagged date : UTC 2016-03-13 21:13:00
    Menu For : 1
    00:00:00.000 : Chapter 1
    00:07:30.200 : Chapter 2
    00:14:59.399 : Chapter 3
    00:20:57.173 : Chapter 4
    00:26:34.510 : Chapter 5
    00:33:53.031 : Chapter 6
    00:37:17.444 : Chapter 7
    00:44:06.686 : Chapter 8
    00:49:25.171 : Chapter 9
    00:55:12.226 : Chapter 10
    01:02:08.934 : Chapter 11
    01:08:06.040 : Chapter 12
    01:16:20.451 : Chapter 13
    01:23:31.465 : Chapter 14
    01:29:42.586 : Chapter 15
    01:34:53.438 : Chapter 16
    01:39:49.442 : Chapter 17
    01:47:33.906 : Chapter 18
    01:52:36.667 : Chapter 19
    01:58:56.755 : Chapter 20
    Bit rate mode : VBR

    x264 лог

    x264 [info]: frame I:1356  Avg QP:14.92  size:243531
    x264 [info]: frame P:40202 Avg QP:17.75  size: 78557
    x264 [info]: frame B:137770 Avg QP:18.53  size: 28874
    x264 [info]: consecutive B-frames:  1.9%  2.8% 15.9% 14.2% 17.4% 39.6%  3.6%  0.9%  0.6%  0.5%  0.3%  0.3%  0.2%  0.3%  0.2%  0.4%  0.8%
    x264 [info]: mb I  I16..4: 31.0% 51.4% 17.5%
    x264 [info]: mb P  I16..4:  7.3% 12.6%  1.1%  P16..4: 44.8% 15.5% 11.2%  0.3%  0.1%    skip: 7.1%
    x264 [info]: mb B  I16..4:  2.7%  1.5%  0.2%  B16..8: 33.7%  7.5%  1.8%  direct: 8.4%  skip:44.2%  L0:41.9% L1:43.3% BI:14.8%
    x264 [info]: 8x8 transform intra:49.6% inter:47.9%
    x264 [info]: direct mvs  spatial:98.5% temporal:1.5%
    x264 [info]: coded y,uvDC,uvAC intra: 91.3% 85.0% 71.7% inter: 22.9% 29.7% 15.0%
    x264 [info]: i16 v,h,dc,p: 11%  7% 56% 27%
    x264 [info]: i8 v,h,dc,ddl,ddr,vr,hd,vl,hu: 13% 10% 13%  8% 10% 11% 10% 11% 12%
    x264 [info]: i4 v,h,dc,ddl,ddr,vr,hd,vl,hu: 13% 11% 11%  8% 12% 12% 12% 10% 11%
    x264 [info]: i8c dc,h,v,p: 57% 16% 16% 11%
    x264 [info]: Weighted P-Frames: Y:2.4% UV:1.1%
    x264 [info]: ref P L0: 50.1%  9.0% 29.2%  9.3%  2.3%  0.0%
    x264 [info]: ref B L0: 81.5% 15.2%  3.3%
    x264 [info]: ref B L1: 91.5%  8.5%
    x264 [info]: kb/s:7985.90

    Скриншоты

    -

    Релиз подготовлен для просмотра на Apple TV, iPad, iPhone, iPod Touch.
    Для просмотра данного релиза на компьютере с ОС Windows рекомендуется использовать VLC media player
    Скачать .torrent

    Скачать торрент-файл бесплатно и на максимальной скорости!

    Как скачивать? · Что такое торрент? · Рейтинг и ограничения

    !ВНИМАНИЕ!
    Сайт не распространяет и не хранит электронные версии произведений, а занимается лишь лишь предоставлением доступа к создаваемому пользователями каталогу ссылок на торрент-файлы, которые содержат только списки хеш-сумм, убедительная просьба с жалобами обращаться напрямую к пользователю. Файлы для обмена на трекере предоставлены пользователями сайта, и администрация не несёт ответственности за их содержание. Просьба не заливать файлы, защищенные авторскими правами, а также файлы нелегального содержания!


    _________________
    [Профиль] [ЛС]
    Показать сообщения:    
    Ответить на тему

    Текущее время: Сегодня, в 23:19

    Часовой пояс: GMT + 2



    Вы не можете начинать темы
    Вы не можете отвечать на сообщения
    Вы не можете редактировать свои сообщения
    Вы не можете удалять свои сообщения
    Вы не можете голосовать в опросах
    Вы не можете прикреплять файлы к сообщениям
    Вы не можете скачивать файлы