BitTorrentTracker PerecTracker.org
BitTorrentTracker PerecTracker.org
    
Регистрация  ·  Вход
 
 · 
Забыли пароль?

  • Спасение (Иван Вырыпаев) [2015, драма, SATRip-AVC]

    Ответить на тему
     
    Автор Сообщение

    rechyn

    Создавать темы 14-Мар-2016 00:27

           

    [Цитировать]

    -Спасение-Жанр: драма
    Год выпуска: 2015
    Продолжительность: 01:30:19-Режиссёр: Иван Вырыпаев-В ролях: Полина Гришина, Каролина Грушка, Казимир Лиске, Ванчук Фарго, Ангчук Фунтсог, Диана Замойская, отец Эдвард, Иван Вырыпаев-Описание: Молодую католическую монахиню сестру Анну из Польши отправляют служить в миссию католического прихода высоко в гималайских горах. Сестре Анне 25 лет, и половину жизни она провела в монастыре. И вот, первый раз в жизни она выезжает в другую страну, и не просто в какую-то страну, а в аутентичный край Ладакх, который является частью тибетской Индии. Приехав туда, сестра Анна оказывается в совершенно незнакомом ей мире. Она сталкивается с совсем иной культурой, с другими энергиями и абсолютно другой религией. Загадочный мир Тибета и случайные встречи в пути приносят сложные мысли и вопросы.-Доп. информация:
    Фильм на английском языке. На русский язык озвучен режиссером Иваном Вырыпаевым.
    Производство: Киностудия им. М. Горького, Валдай-фильм, BaltMedia, 2015 г.
    -Награды: XXVI Кинотавр (2015 год): победитель в категории "Лучшая женская роль" (Полина Гришина) и номинация на Главный приз.-Сэмпл: https://yadi.sk/i/DHsRQvLdq8v7j-Качество видео: SATRip-AVC
    Формат видео: MKV
    Видео кодек: H.264
    Аудио кодек: AC-3
    Видео: 712@768x432 анаморф 16:9, 25 fps, ~2151 kbps
    Аудио: 48 kHz, 2 канала, ~192 kbps-MediaInfo

    Лог

    raw [info]: 712x432p 96:89 @ 25/1 fps (cfr)
    x264 [info]: using SAR=96/89
    x264 [info]: using cpu capabilities: MMX2 SSE2Fast SSSE3 SSE4.2 LZCNT BMI1 BMI2
    x264 [info]: profile High, level 4.1
    x264 [info]: frame I:750 Avg QP: 9.21 size: 77456
    x264 [info]: frame P:33547 Avg QP:11.72 size: 30167
    x264 [info]: frame B:101178 Avg QP:14.89 size: 3824

    x264 [info]: consecutive B-frames: 4.1% 5.0% 8.8% 21.1% 21.8% 27.8% 6.8% 3.1% 1.5%
    x264 [info]: mb I I16..4: 5.2% 63.0% 31.9%
    x264 [info]: mb P I16..4: 0.6% 6.2% 1.3% P16..4: 32.9% 32.6% 25.8% 0.0% 0.0% skip: 0.7%
    x264 [info]: mb B I16..4: 0.1% 0.2% 0.0% B16..8: 35.9% 14.2% 4.5% direct: 6.4% skip:38.7% L0:34.4% L1:40.6% BI:25.0%
    x264 [info]: 8x8 transform intra:73.5% inter:33.0%
    x264 [info]: direct mvs spatial:98.3% temporal:1.7%
    x264 [info]: coded y,uvDC,uvAC intra: 90.3% 92.1% 81.7% inter: 29.1% 30.9% 19.7%
    x264 [info]: i16 v,h,dc,p: 48% 13% 15% 24%
    x264 [info]: i8 v,h,dc,ddl,ddr,vr,hd,vl,hu: 21% 16% 18% 6% 7% 9% 7% 9% 8%
    x264 [info]: i4 v,h,dc,ddl,ddr,vr,hd,vl,hu: 17% 14% 7% 9% 11% 13% 9% 10% 10%
    x264 [info]: i8c dc,h,v,p: 52% 19% 21% 8%
    x264 [info]: Weighted P-Frames: Y:1.4% UV:0.5%
    x264 [info]: ref P L0: 59.9% 9.7% 15.1% 4.1% 3.8% 2.7% 2.7% 1.7% 0.3% 0.0%
    x264 [info]: ref B L0: 88.1% 7.3% 2.0% 1.0% 0.8% 0.5% 0.3%
    x264 [info]: ref B L1: 96.4% 3.6%
    x264 [info]: kb/s:2150.94
    x264 [total]: encoded 135475 frames, 6.48 fps, 2150.94 kb/s
    General
    Unique ID : 214739135838167628266580367578243826580 (0xA18D40D156BB51138DBFB37811C88394)
    Complete name : C:\Torrent\Спасение.2015.SATRip-AVC by Dmitrio7197\Спасение.2015.SATRip-AVC by Dmitrio7197.mkv
    Format : Matroska
    Format version : Version 2
    File size : 1.48 GiB
    Duration : 1h 30mn
    Overall bit rate : 2 345 Kbps
    Encoded date : UTC 2016-03-13 01:24:16
    Writing application : mkvmerge v6.1.0 ('Old Devil') built on Mar 4 2013 09:10:42
    Writing library : libebml v1.3.0 + libmatroska v1.4.0
    Video
    ID : 1
    Format : AVC
    Format/Info : Advanced Video Codec
    Format profile : High@L4.1
    Format settings, CABAC : Yes
    Format settings, ReFrames : 8 frames
    Codec ID : V_MPEG4/ISO/AVC
    Duration : 1h 30mn
    Bit rate : 2 151 Kbps
    Width : 712 pixels
    Height : 432 pixels
    Display aspect ratio : 16:9
    Frame rate mode : Constant
    Frame rate : 25.000 fps
    Color space : YUV
    Chroma subsampling : 4:2:0
    Bit depth : 8 bits
    Scan type : Progressive
    Bits/(Pixel*Frame) : 0.280
    Stream size : 1.33 GiB (90%)
    Writing library : x264 core 130 r2273 b3065e6
    Encoding settings : cabac=1 / ref=8 / deblock=1:-1:0 / analyse=0x3:0x113 / me=umh / subme=9 / psy=1 / psy_rd=1.00:0.00 / mixed_ref=1 / me_range=24 / chroma_me=1 / trellis=2 / 8x8dct=1 / cqm=0 / deadzone=21,11 / fast_pskip=1 / chroma_qp_offset=-2 / threads=6 / lookahead_threads=1 / sliced_threads=0 / nr=0 / decimate=0 / interlaced=0 / bluray_compat=0 / constrained_intra=0 / bframes=8 / b_pyramid=2 / b_adapt=2 / b_bias=0 / direct=3 / weightb=1 / open_gop=0 / weightp=2 / keyint=250 / keyint_min=25 / scenecut=40 / intra_refresh=0 / rc_lookahead=40 / rc=2pass / mbtree=1 / bitrate=2151 / ratetol=1.0 / qcomp=0.60 / qpmin=0 / qpmax=69 / qpstep=4 / cplxblur=20.0 / qblur=0.5 / ip_ratio=1.40 / aq=1:1.00
    Default : Yes
    Forced : No
    Audio
    ID : 2
    Format : AC-3
    Format/Info : Audio Coding 3
    Mode extension : CM (complete main)
    Format settings, Endianness : Big
    Codec ID : A_AC3
    Duration : 1h 30mn
    Bit rate mode : Constant
    Bit rate : 192 Kbps
    Channel(s) : 2 channels
    Channel positions : Front: L R
    Sampling rate : 48.0 KHz
    Compression mode : Lossy
    Stream size : 124 MiB (8%)
    Default : Yes
    Forced : No

    Скриншот c названием фильма

    Скриншоты

    Скачать .torrent

    Скачать торрент-файл бесплатно и на максимальной скорости!

    Как скачивать? · Что такое торрент? · Рейтинг и ограничения

    !ВНИМАНИЕ!
    Сайт не распространяет и не хранит электронные версии произведений, а занимается лишь лишь предоставлением доступа к создаваемому пользователями каталогу ссылок на торрент-файлы, которые содержат только списки хеш-сумм, убедительная просьба с жалобами обращаться напрямую к пользователю. Файлы для обмена на трекере предоставлены пользователями сайта, и администрация не несёт ответственности за их содержание. Просьба не заливать файлы, защищенные авторскими правами, а также файлы нелегального содержания!


    _________________
    [Профиль] [ЛС]
    Показать сообщения:    
    Ответить на тему

    Текущее время: Сегодня, в 06:43

    Часовой пояс: GMT + 2



    Вы не можете начинать темы
    Вы не можете отвечать на сообщения
    Вы не можете редактировать свои сообщения
    Вы не можете удалять свои сообщения
    Вы не можете голосовать в опросах
    Вы не можете прикреплять файлы к сообщениям
    Вы не можете скачивать файлы