Register  ·  Log in
Forgot password?

  • Медовик / Медовый паук / Honeyspider (Джош Хэсти / Josh Hasty) [2014, США, Ужасы, триллер, DVDRip] VO (datynet; перевод: Куценко)

    Reply to topic
    Author Message


    Post 14-Mar-2016 01:27



    Медовик / Медовый паук / Honeyspider
    Страна: США
    Жанр: Ужасы, триллер
    Год выпуска: 2014
    Продолжительность: 01:15:32
    Перевод: Одноголосый закадровый datynet; перевод: Куценко
    Cубтитры: нет
    Режиссер: Джош Хэсти / Josh Hasty
    В ролях: Фрэнк Дж. Аард, Брэд Бэйкер, Кэти Берден, Мэрайя Браун, Кенни Кэйпертон, Этан Данн
    Описание: Хэллоуин, 1989 год. Студентка Джеки хочет спокойно провести день рождения. У ее подруги Эмбер другие соображения на этот счет. Она убеждает Джеки прийти на ежегодную вечеринку на территории кампуса. И все бы хорошо, но вот только Джеки в этот вечер попадает под действие странного заклинания…
    Доп. информация:

    Качество видео: DVDRip
    Формат видео: MKV
    Видео: 1280x720, (16:9), 23.976fps, MPEG4 Video (H264) ~2935 Kbps, 0.133 bit/pixel
    Аудио: 48 KHz, MPEG Layer 3, 2 channels, stereo 192kbps


    Unique ID : 205170497644771719125740419941717445014 (0x9A5A6687F27BCAE0B7BB45965CE30996)
    Complete name : E:\Honeyspider.2014.mkv
    Format : Matroska
    Format version : Version 4 / Version 2
    File size : 1.61 GiB
    Duration : 1h 15mn
    Overall bit rate : 3 056 Kbps
    Encoded date : UTC 2015-10-31 06:16:29
    Writing application : mkvmerge v8.6.1 ('Flying') 64bit
    ID : 1
    Format : AVC
    Format/Info : Advanced Video Codec
    Format profile : Main@L3.1
    Format settings, CABAC : Yes
    Format settings, ReFrames : 1 frame
    Codec ID : V_MPEG4/ISO/AVC
    Duration : 1h 15mn
    Bit rate : 2 935 Kbps
    Width : 1 280 pixels
    Height : 720 pixels
    Display aspect ratio : 16:9
    Frame rate mode : Constant
    Frame rate : 23.976 fps
    Color space : YUV
    Chroma subsampling : 4:2:0
    Bit depth : 8 bits
    Scan type : Progressive
    Bits/(Pixel*Frame) : 0.133
    Stream size : 1.48 GiB (92%)
    ID : 2
    Format : MPEG Audio
    Format version : Version 1
    Format profile : Layer 3
    Codec ID : A_MPEG/L3
    Codec ID/Hint : MP3
    Duration : 1h 15mn
    Bit rate mode : Constant
    Bit rate : 192 Kbps
    Channel(s) : 2 channels
    Sampling rate : 48.0 KHz
    Compression mode : Lossy
    Stream size : 104 MiB (6%)
    Default : Yes
    Forced : No


    Download .torrent

    Download free and at maximum speed!

    How to Download? · What is a torrent? · Ratings and Limitations

    The site does not extend and does not store electronic(digital) versions of products, and only gives access to a reference catalogue created by users on torrent-files which contain only lists of the hash-sums, the earnest entreaty, with complaints(abuse) to access directly to the user. Files for an exchange on tracker are given by users of a site, and the administration does not bear the responsibility for their maintenance. The request to not fill in the files protected by copyrights, and also files of the illegal maintenance!

    [Profile] [PM]
    Display posts from previous:    
    Reply to topic

    The time now is: Today 17:17

    All times are GMT + 3 Hours

    You cannot post new topics in this forum
    You cannot reply to topics in this forum
    You cannot edit your posts in this forum
    You cannot delete your posts in this forum
    You cannot vote in polls in this forum
    You cannot attach files in this forum
    You cannot download files in this forum