BitTorrentTracker PerecTracker.org
BitTorrentTracker PerecTracker.org
    
Регистрация  ·  Вход
 
 · 
Забыли пароль?

  • Медовик / Медовый паук / Honeyspider (Джош Хэсти / Josh Hasty) [2014, США, Ужасы, триллер, DVDRip] VO (datynet; перевод: Куценко)

    Ответить на тему
     
    Автор Сообщение

    rechyn

    Создавать темы 14-Мар-2016 00:27

           

    [Цитировать]

    Медовик / Медовый паук / Honeyspider
    Страна: США
    Жанр: Ужасы, триллер
    Год выпуска: 2014
    Продолжительность: 01:15:32
    Перевод: Одноголосый закадровый datynet; перевод: Куценко
    Cубтитры: нет
    Режиссер: Джош Хэсти / Josh Hasty
    В ролях: Фрэнк Дж. Аард, Брэд Бэйкер, Кэти Берден, Мэрайя Браун, Кенни Кэйпертон, Этан Данн
    Описание: Хэллоуин, 1989 год. Студентка Джеки хочет спокойно провести день рождения. У ее подруги Эмбер другие соображения на этот счет. Она убеждает Джеки прийти на ежегодную вечеринку на территории кампуса. И все бы хорошо, но вот только Джеки в этот вечер попадает под действие странного заклинания…
    Доп. информация:

    Сэмпл: http://sendfile.su/1213659
    Качество видео: DVDRip
    Формат видео: MKV
    Видео: 1280x720, (16:9), 23.976fps, MPEG4 Video (H264) ~2935 Kbps, 0.133 bit/pixel
    Аудио: 48 KHz, MPEG Layer 3, 2 channels, stereo 192kbps

    MediaInfo

    General
    Unique ID : 205170497644771719125740419941717445014 (0x9A5A6687F27BCAE0B7BB45965CE30996)
    Complete name : E:\Honeyspider.2014.mkv
    Format : Matroska
    Format version : Version 4 / Version 2
    File size : 1.61 GiB
    Duration : 1h 15mn
    Overall bit rate : 3 056 Kbps
    Encoded date : UTC 2015-10-31 06:16:29
    Writing application : mkvmerge v8.6.1 ('Flying') 64bit
    Video
    ID : 1
    Format : AVC
    Format/Info : Advanced Video Codec
    Format profile : Main@L3.1
    Format settings, CABAC : Yes
    Format settings, ReFrames : 1 frame
    Codec ID : V_MPEG4/ISO/AVC
    Duration : 1h 15mn
    Bit rate : 2 935 Kbps
    Width : 1 280 pixels
    Height : 720 pixels
    Display aspect ratio : 16:9
    Frame rate mode : Constant
    Frame rate : 23.976 fps
    Color space : YUV
    Chroma subsampling : 4:2:0
    Bit depth : 8 bits
    Scan type : Progressive
    Bits/(Pixel*Frame) : 0.133
    Stream size : 1.48 GiB (92%)
    Audio
    ID : 2
    Format : MPEG Audio
    Format version : Version 1
    Format profile : Layer 3
    Codec ID : A_MPEG/L3
    Codec ID/Hint : MP3
    Duration : 1h 15mn
    Bit rate mode : Constant
    Bit rate : 192 Kbps
    Channel(s) : 2 channels
    Sampling rate : 48.0 KHz
    Compression mode : Lossy
    Stream size : 104 MiB (6%)
    Default : Yes
    Forced : No

    Скриншоты









    Скачать .torrent

    Скачать торрент-файл бесплатно и на максимальной скорости!

    Как скачивать? · Что такое торрент? · Рейтинг и ограничения

    !ВНИМАНИЕ!
    Сайт не распространяет и не хранит электронные версии произведений, а занимается лишь лишь предоставлением доступа к создаваемому пользователями каталогу ссылок на торрент-файлы, которые содержат только списки хеш-сумм, убедительная просьба с жалобами обращаться напрямую к пользователю. Файлы для обмена на трекере предоставлены пользователями сайта, и администрация не несёт ответственности за их содержание. Просьба не заливать файлы, защищенные авторскими правами, а также файлы нелегального содержания!


    _________________
    [Профиль] [ЛС]
    Показать сообщения:    
    Ответить на тему

    Текущее время: Сегодня, в 22:18

    Часовой пояс: GMT + 2



    Вы не можете начинать темы
    Вы не можете отвечать на сообщения
    Вы не можете редактировать свои сообщения
    Вы не можете удалять свои сообщения
    Вы не можете голосовать в опросах
    Вы не можете прикреплять файлы к сообщениям
    Вы не можете скачивать файлы